Today is a free download without charge Download

Дальнобой без тормозов / Супербайкеры / Свободная птица / Freebird (Джон Айвэй / Jon Ivay) [2008, Великобритания, комедия, BDRip 720p] MVO ("СТУДИЯ ШПИЛЬ-ГРУПП") + Original Eng

Reply to topic
 
Author
Message

Omen ®

Longevity: 8 years 5 months

Posts: 181087

Торрент-статистика

Post 01-Jun-2013 01:36

[Quote]

Дальнобой без тормозов / Супербайкеры /
Свободная птица / Freebird
- Страна: Великобритания
Жанр: комедия
Год выпуска: 2008
Продолжительность: 01:33:30
Перевод: Профессиональный (многоголосый закадровый) "СТУДИЯ ШПИЛЬ-ГРУПП"
Cубтитры: нет
Оригинальная аудиодорожка: английский-Режиссер: Джон Айвэй / Jon Ivay
В ролях: Алун ап Бринли, Джофф Белл, Питер Боулз, Фил Дэниелс, Гвенллиан Дэвис, Маркус Гилберт, Джонатан Холмс, Кэролайн Ханнисетт, Джон Айвэй, Хагги Ливер-Описание: Трое английских раздолбаев байкеров отправляются по просьбе своего старого друга привезти отменной травы, выращиваемой одним хиппи в глубине лесов Уэльса.
Один уикэнд в Уэльсе, нарко-сделка на ферме и две враждующие банды... Может что-то пошло не так, как надо? Наполнив себя "травкой" и алкоголем, они вновь наслаждаются кемпингом и игрой на воображаемой гитаре, и одновременно с этим пытаются предотвратить войну за переделку территории.-
-Качество видео: BDRip 720p
Формат видео: MKV
Видео: x.264, 1280x560, 5167 Kbps, 23.976 fps
Аудио 1: AC3, 48000 Hz, 384 Kbps, 5.1 channels - RUS
Аудио 2: DTS, 48000 Hz, 1509 Kbps, 5.1 channels - ENG
-

Скриншоты


Резервные скриншоты



-

MediaInfo

Код:
Format                                   : Matroska
Format version                           : Version 4 / Version 2
File size                                : 4.61 GiB
Duration                                 : 1h 33mn
Overall bit rate                         : 7 060 Kbps
Movie name                               : Дальнобой без тормозов / Супербайкеры / Свободная птица / Freebird (2008) BDRip 720p
Encoded date                             : UTC 2013-05-31 13:06:25
Writing application                      : mkvmerge v6.2.0 ('Promised Land') built on Apr 28 2013 12:22:01
Writing library                          : libebml v1.3.0 + libmatroska v1.4.0
Attachment                               : Yes
Video
ID                                       : 1
Format                                   : AVC
Format/Info                              : Advanced Video Codec
Format profile                           : [email protected]
Format settings, CABAC                   : Yes
Format settings, ReFrames                : 5 frames
Codec ID                                 : V_MPEG4/ISO/AVC
Duration                                 : 1h 33mn
Bit rate                                 : 5 167 Kbps
Width                                    : 1 280 pixels
Height                                   : 560 pixels
Display aspect ratio                     : 2.25:1
Frame rate mode                          : Constant
Frame rate                               : 23.976 fps
Color space                              : YUV
Chroma subsampling                       : 4:2:0
Bit depth                                : 8 bits
Scan type                                : Progressive
Bits/(Pixel*Frame)                       : 0.301
Stream size                              : 3.28 GiB (71%)
Title                                    : RG Torrents.ru
Writing library                          : x264 core 132 r2310 76a5c3a
Encoding settings                        : cabac=1 / ref=5 / deblock=1:0:0 / analyse=0x3:0x133 / me=umh / subme=7 / psy=1 / psy_rd=1.00:0.00 / mixed_ref=1 / me_range=16 / chroma_me=1 / trellis=1 / 8x8dct=1 / cqm=0 / deadzone=21,11 / fast_pskip=0 / chroma_qp_offset=-2 / threads=18 / lookahead_threads=3 / sliced_threads=0 / nr=0 / decimate=1 / interlaced=0 / bluray_compat=0 / constrained_intra=0 / bframes=3 / b_pyramid=2 / b_adapt=1 / b_bias=0 / direct=1 / weightb=1 / open_gop=0 / weightp=2 / keyint=240 / keyint_min=23 / scenecut=40 / intra_refresh=0 / rc_lookahead=40 / rc=2pass / mbtree=1 / bitrate=5167 / ratetol=1.0 / qcomp=0.60 / qpmin=10 / qpmax=69 / qpstep=4 / cplxblur=20.0 / qblur=0.5 / ip_ratio=1.40 / aq=1:1.00
Language                                 : English
Default                                  : Yes
Forced                                   : No
Audio #1
ID                                       : 2
Format                                   : AC-3
Format/Info                              : Audio Coding 3
Mode extension                           : CM (complete main)
Format settings, Endianness              : Big
Codec ID                                 : A_AC3
Duration                                 : 1h 33mn
Bit rate mode                            : Constant
Bit rate                                 : 384 Kbps
Channel(s)                               : 6 channels
Channel positions                        : Front: L C R, Side: L R, LFE
Sampling rate                            : 48.0 KHz
Bit depth                                : 16 bits
Compression mode                         : Lossy
Stream size                              : 257 MiB (5%)
Language                                 : Russian
Default                                  : Yes
Forced                                   : No
Audio #2
ID                                       : 3
Format                                   : DTS
Format/Info                              : Digital Theater Systems
Mode                                     : 16
Format settings, Endianness              : Big
Codec ID                                 : A_DTS
Duration                                 : 1h 33mn
Bit rate mode                            : Constant
Bit rate                                 : 1 509 Kbps
Channel(s)                               : 6 channels
Channel positions                        : Front: L C R, Side: L R, LFE
Sampling rate                            : 48.0 KHz
Bit depth                                : 24 bits
Compression mode                         : Lossy
Stream size                              : 1 009 MiB (21%)
Language                                 : English
Default                                  : No
Forced                                   : No
Menu
00:00:00.000                             : en:00:00:00.000
00:15:19.543                             : en:00:15:19.543
00:30:28.827                             : en:00:30:28.827
00:44:44.348                             : en:00:44:44.348
00:59:29.691                             : en:00:59:29.691
01:12:36.018                             : en:01:12:36.018
Other forum [Profile] [PM]
Display posts from previous:    
Reply to topic

The time now is: Today 05:28

All times are GMT + 3 Hours



You cannot post new topics in this forum
You cannot reply to topics in this forum
You cannot edit your posts in this forum
You cannot delete your posts in this forum
You cannot vote in polls in this forum
You cannot attach files in this forum
You cannot download files in this forum