Today is a free download without charge Download

Матч (Андрей Малюков) [2012, Россия, Украина, драма, военный, BDRip 720p]

Reply to topic
 
Author
Message

Omen ®

Longevity: 8 years 10 months

Posts: 181086

Торрент-статистика

Post 31-May-2013 21:32

[Quote]

Матч
Страна: Россия, Украина
Студия: Рекун-синема
Жанр: драма, военный
Год выпуска: 2012
Продолжительность: 01:57:38
Навигация по главам: есть
Субтитры: нет
Режиссер: Андрей Малюков
В ролях: Екатерина Климова, Станислав Боклан, Остап Ступка, Александр Кобзарь, Никита Тезин, Владимир Невельский, Маша Живагина, Ольга Радчук, Карэн Бадалов, Игорь Гнездилов, Светлана Прус, Алексей Вертинский, Дирк Мартенс, Петер Циммерман, Петар Зекавица, Годехард Гиз, Филипп Рейнхардт, Сергей Романович, Александр Крыжановский, Сергей Деревянко, Сергей Малюга, Валентин Касьян, Владимир Рощук, Сергей Шахов, Владимир Заец, Василий Сивохоп, Юрий Головин, Александр Грошевой, Александр Першин, Пётр Панчук, Игорь Назаров, Анна Саливанчук, Денис Татаркин, Эдуард Безродный, Антон Себастьян, Владимир Федоров, Валерий Сковронский, Юрий Яковлев-Суханов, Инга Нагорная, Вячеслав Пашковский, Павел Алдошин, Анатолий Пашнин, Сергей Безруков, Елизавета Боярская
Описание: 1942 год. Николай Раневич, вратарь и звезда киевского «Динамо», теряет самое дорогое — свободу, любимую девушку Анну и возможность играть в футбол. Анна спасает Николая из плена, но теперь они не могут быть вместе… Немцы устраивают чемпионат по футболу между местными командами и сборной Вермахта. Раневич собирает друзей и вновь выходит на поле играть за свою честь, за любовь, за Родину!

Релиз: fanatus
Качество видео: BDRip 720p
Исходник: Blu-ray 1080i
Контейнер: MKV
Видео: MPEG-4 AVC, 4680 kbps , 1280x692 (1.85:1), 25.000 fps, 0.211 bit/pixel
Аудио: AC3, 6 ch, 48 kHz, 640 kbps

MediaInfo

General
Unique ID : 219624655936862135208287811584699776078 (0xA53A2B8E426191329AC434AB09E5BC4E)
Complete name : D:\Match.2012.x264.BDRip.720p.fanatus.mkv
Format : Matroska
Format version : Version 2
File size : 4.37 GiB
Duration : 1h 57mn
Overall bit rate : 5 319 Kbps
Movie name : Match (2012) - fanatus
Encoded date : UTC 2013-05-31 10:58:24
Writing application : mkvmerge v3.4.0 ('Rapunzel') сборка от May 15 2010 09:38:20
Writing library : libebml v0.8.0 + libmatroska v0.9.0
Video
ID : 1
Format : AVC
Format/Info : Advanced Video Codec
Format profile : [email protected]
Format settings, CABAC : Yes
Format settings, ReFrames : 9 frames
Codec ID : V_MPEG4/ISO/AVC
Duration : 1h 57mn
Bit rate : 4 680 Kbps
Width : 1 280 pixels
Height : 692 pixels
Display aspect ratio : 1.85:1
Frame rate : 25.000 fps
Color space : YUV
Chroma subsampling : 4:2:0
Bit depth : 8 bits
Scan type : Progressive
Bits/(Pixel*Frame) : 0.211
Stream size : 3.76 GiB (86%)
Title : Match (2012)
Writing library : x264 core 132 r2323+704+51 d571b1c tMod [[email protected] X86]
Encoding settings : cabac=1 / ref=9 / deblock=1:-3:-3 / analyse=0x3:0x113 / me=tesa / subme=11 / psy=1 / fade_compensate=0.00 / psy_rd=0.95:0.00 / mixed_ref=1 / me_range=48 / chroma_me=1 / trellis=2 / 8x8dct=1 / cqm=0 / deadzone=21,11 / fast_pskip=0 / chroma_qp_offset=-2 / threads=16 / lookahead_threads=4 / sliced_threads=0 / nr=0 / decimate=0 / interlaced=0 / bluray_compat=0 / constrained_intra=0 / fgo=0 / bframes=10 / b_pyramid=2 / b_adapt=2 / b_bias=0 / direct=3 / weightb=1 / open_gop=0 / weightp=2 / keyint=250 / keyint_min=25 / scenecut=40 / intra_refresh=0 / rc_lookahead=250 / rc=2pass / mbtree=0 / bitrate=4680 / ratetol=1.0 / qcomp=0.70 / qpmin=0 / qpmax=69 / qpstep=4 / cplxblur=20.0 / qblur=0.5 / vbv_maxrate=50000 / vbv_bufsize=62500 / nal_hrd=none / ip_ratio=1.40 / pb_ratio=1.30 / aq=4:0.90 / aq-sensitivity=10.00 / aq-factor=1.00:1.00:1.00 / aq2=0 / aq3=0
Language : Russian
Default : Yes
Forced : No
Audio
ID : 2
Format : AC-3
Format/Info : Audio Coding 3
Mode extension : CM (complete main)
Format settings, Endianness : Big
Codec ID : A_AC3
Duration : 1h 57mn
Bit rate mode : Constant
Bit rate : 640 Kbps
Channel(s) : 6 channels
Channel positions : Front: L C R, Side: L R, LFE
Sampling rate : 48.0 KHz
Bit depth : 16 bits
Compression mode : Lossy
Stream size : 539 MiB (12%)
Title : Original
Language : Russian
Default : Yes
Forced : No
Menu
00:00:00.000 : en:Chapter 01
00:08:50.480 : en:Chapter 02
00:13:58.440 : en:Chapter 03
00:17:52.760 : en:Chapter 04
00:22:04.359 : en:Chapter 05
00:30:00.520 : en:Chapter 06
00:39:32.680 : en:Chapter 07
00:46:36.640 : en:Chapter 08
00:52:03.320 : en:Chapter 09
00:58:34.640 : en:Chapter 10
01:04:37.600 : en:Chapter 11
01:10:23.840 : en:Chapter 12
01:16:03.880 : en:Chapter 13
01:25:24.640 : en:Chapter 14
01:32:36.760 : en:Chapter 15
01:38:47.479 : en:Chapter 16
01:57:38.040 : en:Chapter 17

x264 [info]

x264 [info]: 1280x692p 1:1 @ 25/1 fps (cfr)
x264 [info]: frame I:1279 Avg QP:14.62 size:130054
x264 [info]: frame P:51263 Avg QP:17.97 size: 43546
x264 [info]: frame B:123922 Avg QP:19.75 size: 13948
x264 [info]: consecutive B-frames: 6.4% 6.6% 13.5% 37.7% 14.5% 13.8% 2.5% 2.9% 1.0% 0.8% 0.3%
x264 [info]: mb I I16..4: 5.9% 73.8% 20.3%
x264 [info]: mb P I16..4: 1.6% 13.4% 2.4% P16..4: 31.9% 34.0% 11.1% 0.0% 0.0% skip: 5.7%
x264 [info]: mb B I16..4: 0.2% 1.5% 0.3% B16..8: 32.1% 19.4% 3.3% direct: 6.0% skip:37.2% L0:38.8% L1:44.4% BI:16.8%
x264 [info]: 8x8 transform intra:76.0% inter:61.3%
x264 [info]: direct mvs spatial:99.2% temporal:0.8%
x264 [info]: coded y,uvDC,uvAC intra: 84.3% 77.0% 46.9% inter: 27.7% 21.6% 7.5%
x264 [info]: i16 v,h,dc,p: 31% 12% 3% 53%
x264 [info]: i8 v,h,dc,ddl,ddr,vr,hd,vl,hu: 13% 8% 5% 9% 13% 14% 13% 13% 13%
x264 [info]: i4 v,h,dc,ddl,ddr,vr,hd,vl,hu: 32% 7% 5% 6% 12% 12% 10% 9% 9%
x264 [info]: i8c dc,h,v,p: 29% 30% 23% 19%
x264 [info]: Weighted P-Frames: Y:2.5% UV:0.9%
x264 [info]: ref P L0: 54.4% 13.1% 14.6% 4.8% 3.9% 2.8% 2.5% 1.6% 1.8% 0.5% 0.0%
x264 [info]: ref B L0: 83.1% 9.0% 3.2% 1.6% 1.2% 0.9% 0.5% 0.3%
x264 [info]: ref B L1: 95.0% 5.0%
x264 [info]: kb/s:4677.51
x264 [info]: encoded 176464 frames, 2.184 fps, 4677.51 kb/s, 3935.9 MB

Скриншот c названием фильма

Скриншоты

Source vs Rip



Other forum [Profile] [PM]
Display posts from previous:    
Reply to topic

The time now is: Today 19:30

All times are GMT + 3 Hours



You cannot post new topics in this forum
You cannot reply to topics in this forum
You cannot edit your posts in this forum
You cannot delete your posts in this forum
You cannot vote in polls in this forum
You cannot attach files in this forum
You cannot download files in this forum