Today is a free download without charge Download

Лэйк Плэсид: Озеро страха / Lake Placid (Стив Майнер / Steve Miner) [1999, США, комедия, приключения, триллер, WEB-DL 720p] Dub (Мосфильм / Парадиз-Видео) + MVO (DVD R5 / Парадиз-Видео) + Sub Eng + Original Eng

Reply to topic
 
Author
Message

Omen ®

Longevity: 8 years 5 months

Posts: 181087

Торрент-статистика

Post 31-May-2013 17:28

[Quote]

Лэйк Плэсид: Озеро страха / Lake Placid
Страна: США
Студия: ХХ-й Век-Фокс
Жанр: комедия, приключения, триллер
Год выпуска: 1999
Продолжительность: 01:18:40
Перевод: Профессиональный (дублированный) Мосфильм / Парадиз-Видео
Перевод 2: Профессиональный (многоголосый закадровый) DVD R5 / Парадиз-Видео
Cубтитры: английские
Оригинальная аудиодорожка: английский
Режиссер: Стив Майнер / Steve Miner
В ролях: Билл Пуллман, Бриджит Фонда, Оливер Плэтт, Брендан Глиссон, Бетти Уайт, Дэвид Льюис, Тим Диксон, Натасия Мальте, Маришка Харгитей, Мередит Селенджер, Джед Риис, Ричард Ликок, Джэйк Т. Робертс, Уоррен Текучи, Ти Олссон, Адам Аркин, Стив Майнер
Описание: Лэйк Плэсид, тихое озеро, скрытое в девственных заповедных лесах Америки, завораживает своей древней красотой. Но эти спокойные воды окутывает ужасающая тайна, грозящая гибелью тем, кто захочет раскрыть ее. Шериф с помощниками, специалист по крокодилам Джек Уэллс и девушка из музея Келли Скотт отправляются к озеру на поиски.
Сэмпл: http://multi-up.com/871060
Тип релиза: WEB-DL 720p
Контейнер: MKV
Видео: MPEG4/AVC, PAL, 1 280 x 548 pixels, 2.35:1, 4 038 Kbps, 25.000 fps
Аудио: Русский / Дубляж, AC3, 5.1 ch, 48.0 KHz, 448 Kbps
Аудио 2: Русский / Многоголосый закадровый, AC3, 5.1 ch, 48.0 KHz, 384 Kbps
Аудио 3: Английский / Оригинальный, AC3, 5.1 ch, 48.0 KHz, 448 Kbps
Формат субтитров: softsub (SRT)

MediaInfo

General
Unique ID : 222653139776995560294562825272676518600 (0xA7816F565106144BA81F108E7E570AC8)
Complete name : Lake Placid (1999) 720p WEB-DL [DUB, MVO].mkv
Format : Matroska
Format version : Version 2
File size : 2.98 GiB
Duration : 1h 18mn
Overall bit rate : 5 426 Kbps
Movie name : Lake Placid (1999) WEB-DL 720p DUB
Encoded date : UTC 2013-05-31 08:16:11
Writing application : mkvmerge v3.4.0 ('Rapunzel') сборка от May 15 2010 09:38:20
Writing library : libebml v0.8.0 + libmatroska v0.9.0
Video #1
ID : 1
Format : AVC
Format/Info : Advanced Video Codec
Format profile : [email protected]
Format settings, CABAC : No
Format settings, ReFrames : 2 frames
Codec ID : V_MPEG4/ISO/AVC
Duration : 1h 18mn
Bit rate : 4 038 Kbps
Width : 1 280 pixels
Height : 548 pixels
Display aspect ratio : 2.35:1
Frame rate mode : Constant
Frame rate : 25.000 fps
Color space : YUV
Chroma subsampling : 4:2:0
Bit depth : 8 bits
Scan type : Progressive
Bits/(Pixel*Frame) : 0.230
Stream size : 2.22 GiB (74%)
Title : Lake Placid (1999)
Default : Yes
Forced : No
Color primaries : BT.709
Transfer characteristics : BT.709
Matrix coefficients : BT.709
Audio #2
ID : 2
Format : AC-3
Format/Info : Audio Coding 3
Mode extension : CM (complete main)
Format settings, Endianness : Big
Codec ID : A_AC3
Duration : 1h 18mn
Bit rate mode : Constant
Bit rate : 448 Kbps
Channel(s) : 6 channels
Channel positions : Front: L C R, Side: L R, LFE
Sampling rate : 48.0 KHz
Bit depth : 16 bits
Compression mode : Lossy
Delay relative to video : 1s 300ms
Stream size : 252 MiB (8%)
Title : Russian DUB [Mixed by Youli]
Language : Russian
Default : Yes
Forced : Yes
Audio #3
ID : 3
Format : AC-3
Format/Info : Audio Coding 3
Mode extension : CM (complete main)
Format settings, Endianness : Big
Codec ID : A_AC3
Duration : 1h 18mn
Bit rate mode : Constant
Bit rate : 384 Kbps
Channel(s) : 6 channels
Channel positions : Front: L C R, Side: L R, LFE
Sampling rate : 48.0 KHz
Bit depth : 16 bits
Compression mode : Lossy
Delay relative to video : 1s 300ms
Stream size : 216 MiB (7%)
Title : Russian MVO [R5]
Language : Russian
Default : No
Forced : No
Audio #4
ID : 4
Format : AC-3
Format/Info : Audio Coding 3
Mode extension : CM (complete main)
Format settings, Endianness : Big
Codec ID : A_AC3
Duration : 1h 18mn
Bit rate mode : Constant
Bit rate : 448 Kbps
Channel(s) : 6 channels
Channel positions : Front: L C R, Side: L R, LFE
Sampling rate : 48.0 KHz
Bit depth : 16 bits
Compression mode : Lossy
Delay relative to video : 1s 300ms
Stream size : 252 MiB (8%)
Title : English
Language : English
Default : No
Forced : No
Text #5
ID : 5
Format : UTF-8
Codec ID : S_TEXT/UTF8
Codec ID/Info : UTF-8 Plain Text
Title : English
Language : English
Default : No
Forced : No

Скриншоты

Other forum [Profile] [PM]
Display posts from previous:    
Reply to topic

The time now is: Today 04:29

All times are GMT + 3 Hours



You cannot post new topics in this forum
You cannot reply to topics in this forum
You cannot edit your posts in this forum
You cannot delete your posts in this forum
You cannot vote in polls in this forum
You cannot attach files in this forum
You cannot download files in this forum