Today is a free download without charge Download

Повторяющие реальность / Repeaters (Карл Бессай) (Фантастика, Боевик, Триллер, 2010) BDRip [H.264/720p-LQ]

Reply to topic
 
Author
Message

Omen ®

Longevity: 8 years 5 months

Posts: 181087

Торрент-статистика

Post 31-May-2013 16:23

[Quote]

Повторяющие реальность
Repeaters
- Русское название: Повторяющие реальность
Оригинальное название: Repeaters
Год выпуска: 2010
Производство: Канада / Rampart Films, Raven West Films Ltd., Resonance Film & Video
Жанр: Фантастика, Боевик, Триллер-Описание фильма:
Что если б можно было жить, ни за что не отвечая? Трое подростков из исправительно-реабилитационного центра оказываются именно в такой ситуации. Во временную петлю здесь попадают сразу три героя. Их ударило током во время сильной бури.
Получив возможность прожить день, так как им хочется, абсолютно ни за что не отвечая, они поначалу находят это даже привлекательным. В первый день подростки начинают подозревать что-то неладное, однако на второй день они уже начали пускаться во все тяжкие, стремительно набирая обороты.
Совершив почти весь набор смертных грехов, двое из героев решают вдруг остановить третьего, которому такой расклад пришелся по душе, и пытаются выбраться из замкнутого цикла...
Раз за разом, проживая вместе с героями фильма один и тот же день, и герои фильма, и зритель могут выбирать, что им больше по душе.-Режиссер: Карл Бессай
Актеры: Дастин Миллиган, Аманда Крю, Ричард де Клерк, Алексия Фаст, Габриель Роз, Хротгар Мэтьюз, Бенжамин Рэтнер, Том Шолте, Майкл Адамуэйт, Маной Суд-Продолжительность: 01:33:03
Перевод: Многоголосый закадровый, профессиональный
Язык субтитров: Русский, Английский
Вид субтитров: Вшитые оключаемые- -Дата мировой премьеры: 13 сентября 2010
Дата выхода DVD релиза: 18 января 2012, «Кармен Видео»-Видеокодек: MPEG-4 AVC/H.264
Битрейт видео: ~4000 kbps
Размер кадра: 1280x720
Качество видео: BDRip
Аудио#1: Русский: 48 kHz, AC-3, 6 ch, ~384.00 kbps avg [Профессиональный (многоголосый закадровый, R5)]
Аудио#2: Русский: 48 kHz, AC-3, 2 ch, ~192.00 kbps avg [Любительский (двухголосый, Чип и Дейл)]
Аудио#3: Русский: 48 kHz, AC-3, 6 ch, ~384.00 kbps avg [Любительский (одноголосый, VANO)]
Аудио#4: Английский: 48 kHz, AC3, 6 ch, ~448.00 kbps avg [Оригинал]

MediaInfo:

Общее
Уникальный идентификатор : 210664299347260477773986036324436955067 (0x9E7C77DE17E14F679FC4028712C64FBB)
Полное имя : D:\Торрент раздача\Repeaters.2010.BDRip-AVC.H.264.3.38GB.mkv
Формат : Matroska
Версия формата : Version 2
Размер файла : 3,39 Гбайт
Продолжительность : 1 ч. 33 м.
Общий поток : 5214 Кбит/сек
Дата кодирования : UTC 2013-05-29 12:27:34
Программа кодирования : mkvmerge v4.6.0 ('Still Crazy After All These Years') сборка от Mar 10 2011 02:50:32
Библиотека кодирования : libebml v1.2.0 + libmatroska v1.1.0
Видео
Идентификатор : 1
Формат : AVC
Формат/Информация : Advanced Video Codec
Профиль формата : [url=mailto:[email protected]][email protected][/url]
Параметр CABAC формата : Да
Параметр ReFrames формата : 2 кадра
Идентификатор кодека : V_MPEG4/ISO/AVC
Продолжительность : 1 ч. 33 м.
Битрейт : 3702 Кбит/сек
Номинальный битрейт : 4000 Кбит/сек
Ширина : 1280 пикселей
Высота : 720 пикселей
Соотношение сторон : 16:9
Режим частоты кадров : Постоянный
Частота кадров : 23,976 кадра/сек
Цветовое пространство : YUV
Субдискретизация насыщенности : 4:2:0
Битовая глубина : 8 бит
Тип развёртки : Прогрессивная
Бит/(Пиксели*Кадры) : 0.168
Размер потока : 2,41 Гбайт (71%)
Заголовок : Repeaters
Библиотека кодирования : x264 core 130 r2273
Настройки программы : cabac=1 / ref=2 / deblock=1:-1:-1 / analyse=0x3:0x133 / me=hex / subme=7 / psy=1 / psy_rd=1.00:0.10 / mixed_ref=0 / me_range=16 / chroma_me=1 / trellis=1 / 8x8dct=1 / cqm=0 / deadzone=21,11 / fast_pskip=1 / chroma_qp_offset=-3 / threads=6 / lookahead_threads=1 / sliced_threads=0 / nr=0 / decimate=1 / interlaced=0 / bluray_compat=0 / constrained_intra=0 / bframes=3 / b_pyramid=0 / b_adapt=1 / b_bias=0 / direct=3 / weightb=1 / open_gop=0 / weightp=2 / keyint=230 / keyint_min=23 / scenecut=40 / intra_refresh=0 / rc_lookahead=40 / rc=2pass / mbtree=1 / bitrate=4000 / ratetol=1.0 / qcomp=0.60 / qpmin=10 / qpmax=69 / qpstep=4 / cplxblur=20.0 / qblur=0.5 / vbv_maxrate=24000 / vbv_bufsize=24000 / nal_hrd=none / ip_ratio=1.40 / aq=1:1.00
Язык : English
Default : Да
Forced : Нет
Аудио #1
Идентификатор : 2
Формат : AC-3
Формат/Информация : Audio Coding 3
Расширение режима : CM (complete main)
Параметр Endianness формата : Big
Идентификатор кодека : A_AC3
Продолжительность : 1 ч. 33 м.
Вид битрейта : Постоянный
Битрейт : 384 Кбит/сек
Каналы : 6 каналов
Расположение каналов : Front: L C R, Side: L R, LFE
Частота : 48,0 КГц
Битовая глубина : 16 бит
Метод сжатия : С потерями
Размер потока : 256 Мбайт (7%)
Заголовок : MVO_R5
Язык : Russian
Default : Да
Forced : Нет
Аудио #2
Идентификатор : 3
Формат : AC-3
Формат/Информация : Audio Coding 3
Расширение режима : CM (complete main)
Параметр Endianness формата : Big
Идентификатор кодека : A_AC3
Продолжительность : 1 ч. 33 м.
Вид битрейта : Постоянный
Битрейт : 192 Кбит/сек
Каналы : 2 канала
Расположение каналов : Front: L R
Частота : 48,0 КГц
Битовая глубина : 16 бит
Метод сжатия : С потерями
Размер потока : 128 Мбайт (4%)
Заголовок : DVO
Язык : Russian
Default : Нет
Forced : Нет
Аудио #3
Идентификатор : 4
Формат : AC-3
Формат/Информация : Audio Coding 3
Расширение режима : CM (complete main)
Параметр Endianness формата : Big
Идентификатор кодека : A_AC3
Продолжительность : 1 ч. 33 м.
Вид битрейта : Постоянный
Битрейт : 384 Кбит/сек
Каналы : 6 каналов
Расположение каналов : Front: L C R, Side: L R, LFE
Частота : 48,0 КГц
Битовая глубина : 16 бит
Метод сжатия : С потерями
Размер потока : 256 Мбайт (7%)
Заголовок : VO
Язык : Russian
Default : Нет
Forced : Нет
Аудио #4
Идентификатор : 5
Формат : AC-3
Формат/Информация : Audio Coding 3
Расширение режима : CM (complete main)
Параметр Endianness формата : Big
Идентификатор кодека : A_AC3
Продолжительность : 1 ч. 33 м.
Вид битрейта : Постоянный
Битрейт : 448 Кбит/сек
Каналы : 6 каналов
Расположение каналов : Front: L C R, Side: L R, LFE
Частота : 48,0 КГц
Битовая глубина : 16 бит
Метод сжатия : С потерями
Размер потока : 298 Мбайт (9%)
Заголовок : ENG
Язык : English
Default : Нет
Forced : Нет
Текст #1
Идентификатор : 6
Формат : UTF-8
Идентификатор кодека : S_TEXT/UTF8
Идентификатор кодека/Информация : UTF-8 Plain Text
Заголовок : Full_R5
Язык : Russian
Default : Да
Forced : Нет
Текст #2
Идентификатор : 7
Формат : UTF-8
Идентификатор кодека : S_TEXT/UTF8
Идентификатор кодека/Информация : UTF-8 Plain Text
Заголовок : Full_Merrzavka
Язык : Russian
Default : Нет
Forced : Нет
Текст #3
Идентификатор : 8
Формат : UTF-8
Идентификатор кодека : S_TEXT/UTF8
Идентификатор кодека/Информация : UTF-8 Plain Text
Заголовок : Full
Язык : English
Default : Нет
Forced : Нет
Меню
00:00:00.000 : en:Chapter 01
00:09:38.536 : en:Chapter 02
00:19:32.129 : en:Chapter 03
00:28:38.216 : en:Chapter 04
00:39:07.011 : en:Chapter 05
00:51:10.942 : en:Chapter 06
01:00:12.150 : en:Chapter 07
01:12:17.708 : en:Chapter 08
01:25:30.041 : en:Chapter 09
Скриншоты:
         
         
Other forum [Profile] [PM]
Display posts from previous:    
Reply to topic

The time now is: Today 10:32

All times are GMT + 3 Hours



You cannot post new topics in this forum
You cannot reply to topics in this forum
You cannot edit your posts in this forum
You cannot delete your posts in this forum
You cannot vote in polls in this forum
You cannot attach files in this forum
You cannot download files in this forum