Today is a free download without charge Download

Плейбои / Комедианты / The Playboys (Гиллис МакКиннон / Gillies MacKinnon) [1992, США, Великобритания, Ирландия, Драма, мелодрама, HDTV 1080i] DVO (НТВ+) + Original Eng

Reply to topic
 
Author
Message

Omen ®

Longevity: 8 years 5 months

Posts: 181087

Торрент-статистика

Post 31-May-2013 05:12

[Quote]

Плейбои / Комедианты / The Playboys
Страна: США, Великобритания, Ирландия
Студия: Green Umbrella Ltd., The Samuel Goldwyn Company
Жанр: Драма, мелодрама
Год выпуска: 1992
Продолжительность: 01:44:31
Перевод: Профессиональный (двухголосый закадровый) НТВ+
Cубтитры: нет
Оригинальная аудиодорожка: английский
Режиссер: Гиллис МакКиннон / Gillies MacKinnon
В ролях: Альберт Финни, Эйдан Куинн, Робин Райт, Майло О’Ши, Алан Девлин, Ниам Кьюсак, Йен МакЭлхинни, Стелла МакКаскер, Ниалл Багги, Анна Ливия Райан
Описание: 1950-е годы, Ирландия. Жительница маленькой деревушка Тара привела всех в ужас своим поведением: мало того, что она родила ребенка вне брака, так еще и отказывается назвать имя отца. За Тарой ухаживает констебль Хегарти, но тут в город приезжает театральная труппа...

Тип релиза: HDTV 1080i
Контейнер: MKV
Видео: AVC 1920x1080 (16:9) 25.0fps Bit rate 5863Kbps
Аудио 1: AC3 48000Hz 2ch 192 Kbps rus
Аудио 2: AC3 48000Hz 2ch 192 Kbps eng

MediaInfo

General
Complete name : E:\torrent\The Playboys.mkv
Format : Matroska
File size : 4.65 GiB
Duration : 1h 44mn
Overall bit rate : 6 374 Kbps
Encoded date : UTC 2013-05-30 07:18:20
Writing application : mkvmerge v5.7.0 ('The Whirlwind') built on Jul 8 2012 20:08:51
Writing library : libebml v1.2.3 + libmatroska v1.3.0
Video
ID : 1
Format : AVC
Format/Info : Advanced Video Codec
Format profile : [email protected]
Format settings, CABAC : Yes
Format settings, ReFrames : 3 frames
Format settings, GOP : M=1, N=64
Muxing mode : Container [email protected]
Codec ID : V_MPEG4/ISO/AVC
Duration : 1h 44mn
Bit rate : 5 863 Kbps
Width : 1 920 pixels
Height : 1 080 pixels
Display aspect ratio : 16:9
Frame rate : 50.000 fps
Original frame rate : 25.000 fps
Standard : Component
Color space : YUV
Chroma subsampling : 4:2:0
Bit depth : 8 bits
Scan type : Interlaced
Scan order : Top Field First
Bits/(Pixel*Frame) : 0.057
Stream size : 4.28 GiB (92%)
Title : The Playboys
Color primaries : BT.709-5, BT.1361, IEC 61966-2-4, SMPTE RP177
Transfer characteristics : BT.709-5, BT.1361
Matrix coefficients : BT.709-5, BT.1361, IEC 61966-2-4 709, SMPTE RP177
Audio #1
ID : 2
Format : AC-3
Format/Info : Audio Coding 3
Mode extension : CM (complete main)
Codec ID : A_AC3
Duration : 1h 44mn
Bit rate mode : Constant
Bit rate : 192 Kbps
Channel(s) : 2 channels
Channel positions : Front: L R
Sampling rate : 48.0 KHz
Bit depth : 16 bits
Stream size : 144 MiB (3%)
Title : The Playboys_AC3_DVO_rus
Language : Russian
Audio #2
ID : 3
Format : AC-3
Format/Info : Audio Coding 3
Mode extension : CM (complete main)
Codec ID : A_AC3
Duration : 1h 44mn
Bit rate mode : Constant
Bit rate : 192 Kbps
Channel(s) : 2 channels
Channel positions : Front: L R
Sampling rate : 48.0 KHz
Bit depth : 16 bits
Stream size : 144 MiB (3%)
Title : The Playboys_AC3_original_eng

Скриншот с названием фильма

Скриншоты


Other forum [Profile] [PM]
Display posts from previous:    
Reply to topic

The time now is: Today 23:00

All times are GMT + 3 Hours



You cannot post new topics in this forum
You cannot reply to topics in this forum
You cannot edit your posts in this forum
You cannot delete your posts in this forum
You cannot vote in polls in this forum
You cannot attach files in this forum
You cannot download files in this forum