Today is a free download without charge Download

99 франков / 99 francs (Ян Каунен) [2007 г., драма, комедия, BDRip]

Reply to topic
 
Author
Message

sassad ®

Gender:

Longevity: 8 years 7 months

Posts: 1214

Location: Галич

Торрент-статистика

Post 07-Aug-2011 22:34

[Quote]

99 франков / 99 francs--
Год выпуска: 2007
Страна: Франция
Жанр: драма, комедия
Продолжительность: 99 мин.
Перевод: Профессиональный (полное дублирование)
Режиссер: Ян Каунен
Продюссер: Ален Голдман, Марк Ваде
Сценарий: Николас Шарле, Бруно Лавэн, Ян Каунен-Бюджет: $1 136 036
Премьера в мире: 26 сентября 2007
7.10 (6 045)--
В ролях: Жан Дюжарден, Жослин Киврен, Патрик Милле, Ваина Джоканте, Элиза Товати, Николя Марье, Доминик Беттенфельд, Антуан Баслер, Фоско Перинти, Сендрин Орсье-Описание: Октаву нет равных во вселенной: ведь он занимается рекламой! Это он решает, чего вам захочется завтра. Для него «человек — это такой же продукт, как и все остальные». Октав трудится в крупнейшем рекламном агентстве. У него полно денег, женщин и кокаина, но, тем не менее, его терзают сомнения. Две вещи в корне меняют жизнь Октава: роман с Софи, самой красивой сотрудницей агентства, и совещание в гигантском молочном концерне «Мадон» по поводу рекламного ролика. Октав срывается с катушек и решает взбунтоваться против системы, которая его породила, саботируя свою же рекламную кампанию.-Качество: BDRip(источник: Blu-ray Disc)
Формат: MKV
Видео кодек: H.264
Аудио кодек: AC3
Видео: 1920x816 (2,35:1), 24 fps, 5548 kbps
Аудио: 48 kHz, AC-3, 6 ch, 448 kbps
--

MI

F:\99.francs.mkv
General
Unique ID : 239631408782604958238821327412988714785 (0xB44754A0D37C25279867640B7D339F21)
Complete name : F:\99.francs.mkv
Format : Matroska
Format version : Version 2
File size : 4.38 GB
Duration : 28s 172ms
Overall bit rate : 5 422 Kbps
Encoded date : UTC 2011-03-19 16:57:50
Writing application : mkvmerge v4.0.0 ('The Stars were mine') сборка от Jun 6 2010 16:18:42
Writing library : libebml v1.0.0 + libmatroska v1.0.0
Video #1
ID : 1
Format : AVC
Format/Info : Advanced Video Codec
Format profile : [email protected]
Format settings, CABAC : Yes
Format settings, ReFrames : 5 frames
Format settings, GOP : M=4, N=25
Codec ID : V_MPEG4/ISO/AVC
Duration : 28s 167ms
Bit rate : 4 866 Kbps
Width : 1 920 pixels
Height : 816 pixels
Display aspect ratio : 2.35:1
Frame rate : 24.000 fps
Color space : YUV
Chroma subsampling : 4:2:0
Bit depth : 8 bits
Scan type : Progressive
Bits/(Pixel*Frame) : 0.129
Stream size : 16.3 MiB (90%)
Language : French
Audio #2
ID : 2
Format : AC-3
Format/Info : Audio Coding 3
Mode extension : CM (complete main)
Codec ID : A_AC3
Duration : 28s 172ms
Bit rate mode : Constant
Bit rate : 448 Kbps
Channel(s) : 6 channels
Channel positions : Front: L C R, Side: L R, LFE
Sampling rate : 48.0 KHz
Bit depth : 16 bits
Compression mode : Lossy
Delay relative to video : 12ms
Stream size : 1.50 MiB (8%)
Language : Russian
-- --      --

_________________


Last edited by sassad on 2011-08-07 22:40; edited 1 time in total
Other forum [Profile] [PM]
Display posts from previous:    
Reply to topic

The time now is: Today 09:28

All times are GMT + 3 Hours



You cannot post new topics in this forum
You cannot reply to topics in this forum
You cannot edit your posts in this forum
You cannot delete your posts in this forum
You cannot vote in polls in this forum
You cannot attach files in this forum
You cannot download files in this forum