Today is a free download without charge Download

Каратэ-пацан / The Karate Kid (Харольд Цварт) [2010, боевик, драма, семейный, спортслова, BDRip 1080p] UNRATED

Reply to topic
 
Author
Message

Delia ®

Gender:

Longevity: 10 years

Posts: 1821

Торрент-статистика

Post 30-May-2013 00:16

[Quote]

-Каратэ-пацан
The Karate Kid«Испытания, к которым он не был готов. Наставник, которого ему подарила судьба.»--
Год выпуска: 2010
Страна: США , Китай
Жанр: боевик, драма, семейный, спорт
Продолжительность: 02:20:01
Перевод: Профессиональный (дублированный)
Субтитры: Russian (forced на китайскую речь), Ukrainian (forced на китайскую речь), English (srt)
Режиссер: Харольд Цварт
Сценарий: Кристофер Мёрфи, Роберт Марк Кэмен
Продюсер: Джеймс Ласситер, Джада Пинкетт Смит, Уилл Смит, ...
Оператор: Роджер Прэтт
Композитор: Джеймс Хорнер
Художник: Франсуа Сеган, Секонд Чан, Хань Фенг
Монтаж: Джоэль Негрон-
В ролях: Джеки Чан / Jackie Chan (Mr. Han), Джейден Смит / Jaden Smith (Dre Parker), Тараджи П. Хенсон / Taraji P. Henson (Sherry Parker), Венвен Хань / Wenwen Han (Meiying), Юй Жун Гуан / Yu Rong Guang (Master Li), Чжэньсу У / Zhensu Wu (Meiying's Dad), Чжэнь Ванг / Zhiheng Wang (Meiying's Mom), Чжэньвэй Ван / Zhenwei Wang (Cheng), Джаред Миннс / Jared Minns (Dre's Detroit Friend), Шийя Лю / Shijia Lu (Liang)
Описание: Двенадцатилетний Дре Паркер вместе с матерью-одиночкой переезжает из Детройта в незнакомый Пекин, не зная языка и местных традиций. Здесь он встречает китайскую девочку Мей Ин. Однако кроме её отца, не одобряющего их дружбу из-за культурных предрассудков, на его пути встаёт банда хулиганов во главе с Ченом, владеющим искусством кунг-фу. Единственный способ победить его — встретиться с врагом на близящемся грандиозном турнире боевых искусств. В этом мальчику решает помочь знаток боевых искусств мистер Хан.-- Бюджет: $40 000 000
Сборы в США: $176 591 618
Сборы в мире: + $182 534 404 = $359 126 022
Сборы в России: $5 101 977
Зрители: США 22.4 млн , Великобритания 2.12 млн , Бразилия 2.09 млн
Премьера (мир): 10 июня 2010, ...
Премьера (РФ): 19 августа 2010, «WDSSPR»
Релиз на DVD: 16 сентября 2010, «Columbia/Sony», ...
Релиз на Blu-Ray: 28 октября 2010, «Columbia/Sony», ...-
Рейтинг MPAA: Рекомендуется присутствие родителей
Рейтинг ВКИП: для детей старше 12 лет-
Качество: BDRip
Формат: MKV
Видео кодек: H.264 (AVC)
Аудио кодеk: AC3
Видео: 1920x802 (2.40:1), 23.976 fps, AVC, 10.2 Mbps
Аудио:
Аудио #1: AC3, 384 Kbps, 48.0 KHz, 6 ch RUS Dub
Аудио #2: AC3, 192 Kbps, 48.0 KHz, 2 ch UKR Dub
Аудио #3: AC3, 384 Kbps, 48.0 KHz, 6 ch ENG
--

МедиаИнфо

Код:
x264 [info]: frame I:1524 Avg QP:17.38 size:219965
x264 [info]: frame P:57414 Avg QP:19.90 size: 91869
x264 [info]: frame B:142494 Avg QP:22.00 size: 36064
***************************************************************
General
Unique ID                                : 181152063641519650271504743379054549739 (0x88489E4E82AD4708A154752B5762DAEB)
Complete name                            : The Karate Kid(2010)1080p.F_HD.mkv
Format                                   : Matroska
Format version                           : Version 4 / Version 2
File size                                : 11.0 GiB
Duration                                 : 2h 20mn
Overall bit rate                         : 11.2 Mbps
Movie name                               : The Karate Kid (Unrated) 2010
Encoded date                             : UTC 2013-05-29 19:47:45
Writing application                      : mkvmerge v6.2.0 ('Promised Land') built on Apr 28 2013 12:22:01
Writing library                          : libebml v1.3.0 + libmatroska v1.4.0
Video
ID                                       : 1
Format                                   : AVC
Format/Info                              : Advanced Video Codec
Format profile                           : [email protected]
Format settings, CABAC                   : Yes
Format settings, ReFrames                : 5 frames
Codec ID                                 : V_MPEG4/ISO/AVC
Duration                                 : 2h 20mn
Bit rate                                 : 10.2 Mbps
Width                                    : 1 920 pixels
Height                                   : 802 pixels
Display aspect ratio                     : 2.40:1
Frame rate mode                          : Constant
Frame rate                               : 23.976 fps
Color space                              : YUV
Chroma subsampling                       : 4:2:0
Bit depth                                : 8 bits
Scan type                                : Progressive
Bits/(Pixel*Frame)                       : 0.277
Stream size                              : 9.79 GiB (89%)
Writing library                          : x264 core 133 r2334kMod a3ac64b
Encoding settings                        : cabac=1 / ref=5 / deblock=1:-3:-3 / analyse=0x3:0x113 / me=umh / subme=10 / psy=1 / fade_compensate=0.00 / psy_rd=1.00:0.15 / mixed_ref=1 / me_range=48 / chroma_me=1 / trellis=2 / 8x8dct=1 / cqm=0 / deadzone=21,11 / fast_pskip=0 / chroma_qp_offset=-3 / threads=6 / lookahead_threads=1 / sliced_threads=0 / nr=0 / decimate=1 / interlaced=0 / bluray_compat=0 / constrained_intra=0 / bframes=9 / b_pyramid=2 / b_adapt=2 / b_bias=0 / direct=3 / weightb=1 / open_gop=0 / weightp=2 / keyint=250 / keyint_min=23 / scenecut=40 / intra_refresh=0 / rc_lookahead=40 / rc=2pass / mbtree=0 / bitrate=10240 / ratetol=1.0 / qcomp=0.75 / qpmin=0 / qpmax=69 / qpstep=4 / cplxblur=20.0 / qblur=0.5 / vbv_maxrate=50000 / vbv_bufsize=62500 / nal_hrd=none / ip_ratio=1.40 / pb_ratio=1.30 / aq=3:0.80
Language                                 : English
Default                                  : Yes
Forced                                   : No
Color primaries                          : BT.709
Transfer characteristics                 : BT.709
Matrix coefficients                      : BT.709
Audio #1
ID                                       : 2
Format                                   : AC-3
Format/Info                              : Audio Coding 3
Mode extension                           : CM (complete main)
Format settings, Endianness              : Big
Codec ID                                 : A_AC3
Duration                                 : 2h 20mn
Bit rate mode                            : Constant
Bit rate                                 : 384 Kbps
Channel(s)                               : 6 channels
Channel positions                        : Front: L C R, Side: L R, LFE
Sampling rate                            : 48.0 KHz
Bit depth                                : 16 bits
Compression mode                         : Lossy
Stream size                              : 385 MiB (3%)
Title                                    : Дубляж
Language                                 : Russian
Default                                  : Yes
Forced                                   : No
Audio #2
ID                                       : 3
Format                                   : AC-3
Format/Info                              : Audio Coding 3
Mode extension                           : CM (complete main)
Format settings, Endianness              : Big
Codec ID                                 : A_AC3
Duration                                 : 2h 20mn
Bit rate mode                            : Constant
Bit rate                                 : 192 Kbps
Channel(s)                               : 2 channels
Channel positions                        : Front: L R
Sampling rate                            : 48.0 KHz
Bit depth                                : 16 bits
Compression mode                         : Lossy
Stream size                              : 192 MiB (2%)
Language                                 : Ukrainian
Default                                  : No
Forced                                   : No
Audio #3
ID                                       : 4
Format                                   : AC-3
Format/Info                              : Audio Coding 3
Mode extension                           : CM (complete main)
Format settings, Endianness              : Big
Codec ID                                 : A_AC3
Duration                                 : 2h 20mn
Bit rate mode                            : Constant
Bit rate                                 : 384 Kbps
Channel(s)                               : 6 channels
Channel positions                        : Front: L C R, Side: L R, LFE
Sampling rate                            : 48.0 KHz
Bit depth                                : 16 bits
Compression mode                         : Lossy
Stream size                              : 385 MiB (3%)
Language                                 : English
Default                                  : No
Forced                                   : No
Text #1
ID                                       : 5
Format                                   : UTF-8
Codec ID                                 : S_TEXT/UTF8
Codec ID/Info                            : UTF-8 Plain Text
Title                                    : Диалоги на китайском | forced
Language                                 : Russian
Default                                  : Yes
Forced                                   : No
Text #2
ID                                       : 6
Format                                   : UTF-8
Codec ID                                 : S_TEXT/UTF8
Codec ID/Info                            : UTF-8 Plain Text
Title                                    : Диалоги на китайском | forced
Language                                 : Ukrainian
Default                                  : No
Forced                                   : No
Text #3
ID                                       : 7
Format                                   : UTF-8
Codec ID                                 : S_TEXT/UTF8
Codec ID/Info                            : UTF-8 Plain Text
Language                                 : English
Default                                  : No
Forced                                   : No
Menu
00:00:00.000                             : en:00:00:00.000
00:10:26.250                             : en:00:10:26.250
00:15:06.321                             : en:00:15:06.321
00:24:27.215                             : en:00:24:27.215
00:39:49.303                             : en:00:39:49.303
00:49:52.406                             : en:00:49:52.406
00:54:55.000                             : en:00:54:55.000
01:04:37.622                             : en:01:04:37.622
01:09:47.057                             : en:01:09:47.057
01:20:24.569                             : en:01:20:24.569
01:30:43.479                             : en:01:30:43.479
01:41:44.097                             : en:01:41:44.097
01:46:57.661                             : en:01:46:57.661
01:50:24.576                             : en:01:50:24.576
01:58:59.674                             : en:01:58:59.674
02:03:57.179                             : en:02:03:57.179

Знаете ли Вы, что...

★ За время создания фильма у него несколько раз менялось название: сначала — «Парень-каратист» (англ. The Karate Kid), потом — «Парень-кунфуист» (англ. The Kung Fu Kid), но в конце концов было решено, что фильм выйдет под обоими названиями: в Азии — второй вариант, в большинстве остальных стран — первый. Такое противоречие вызвано тем, что на самом деле в фильме используется искусство кунг-фу, а не карате. Karate-kid (Сяо Дре) — ироничное прозвище, которым наградили главного героя его враги; оно же стало названием фильма.

       
       

_________________
Человек – это канат, натянутый между животным и сверхчеловеком, – канат над пропастью.
В человеке ценно то, что он мост, а не цель. Фридрих Ницше
Other forum [Profile] [PM]
Display posts from previous:    
Reply to topic

The time now is: Today 10:06

All times are GMT + 3 Hours



You cannot post new topics in this forum
You cannot reply to topics in this forum
You cannot edit your posts in this forum
You cannot delete your posts in this forum
You cannot vote in polls in this forum
You cannot attach files in this forum
You cannot download files in this forum