Today is a free download without charge Download

Крик 4 / Scream 4 (Уэс Крэйвен) [2011 г., ужасы, триллер, детектив, BDRip1080p]

Reply to topic
 
Author
Message

sassad ®

Gender:

Longevity: 8 years 7 months

Posts: 1214

Location: Галич

Торрент-статистика

Post 07-Aug-2011 18:54

[Quote]

Крик 4 / Scream 4--
Год выпуска: 2011
Страна: США
Жанр: ужасы, триллер, детектив
Продолжительность: 104 мин.
Перевод: Дублированное [лицензия] [НТВ+]-Режиссер: Уэс Крэйвен
Продюссер: Уэс Крэйвен, Ия Лабунка, Кевин Уильямсон
Сценарий: Кевин Уильямсон-Бюджет: $40 000 000
Премьера в мире: 11 апреля 2011
6.80 (25 309)--
В ролях: Нив Кэмпбелл, Дэвид Аркетт, Кортни Кокс, Анна Пэкуин, Кристен Белл, Хайден Панеттьери, Эмма Робертс, Эрик Кнудсен, Хэзер Грэм, Энтони Андерсон-Описание: Сидни Прескотт последние несколько лет провела в относительной тишине и покое. Теперь она работает методистом в Вудсборгской Средней Школе, ее Альма Матер. Жизнь потихоньку налаживается, вдали от вспышек и видеокамер папарацци.Но когда находят труп одного из студентов, мир Сидни Прескотт вновь начинает рушиться. Всему виной возродившийся убийца в маске «Лицо Призрака».-Качество: BDRip1080p
Формат: MKV
Видео кодек: H.264
Аудио кодек: AC3
Видео: 8027 kb/s, 1920x1080
Аудио: Russian / English: AC3, 448 kb/s (6 ch)
--

MediaInfo

General
Unique ID : 207193709320925078645091770792287509187 (0x9BE00E9174C0C42A80823AF933C19AC3)
Complete name : Krik.4.2011.D.BDRip.1080p.mkv
Format : Matroska
Format version : Version 1
File size : 6.90 GiB
Duration : 1h 50mn
Overall bit rate : 8 919 Kbps
Movie name : -= Release for Uniongang.tv =-
Encoded date : UTC 2011-08-07 07:32:11
Writing application : mkvmerge v2.4.0 ('Fumbling Towards Ecstasy') built on Oct 11 2008 20:13:15
Writing library : libebml v0.7.7 + libmatroska v0.8.1
Video
ID : 1
Format : AVC
Format/Info : Advanced Video Codec
Format profile : [email protected]
Format settings, CABAC : Yes
Format settings, ReFrames : 4 frames
Codec ID : V_MPEG4/ISO/AVC
Duration : 1h 50mn
Bit rate : 8 027 Kbps
Width : 1 920 pixels
Height : 1 080 pixels
Display aspect ratio : 16:9
Frame rate : 23.976 fps
Color space : YUV
Chroma subsampling : 4:2:0
Bit depth : 8 bits
Scan type : Progressive
Bits/(Pixel*Frame) : 0.161
Stream size : 6.07 GiB (88%)
Title : Scream 4 (2011)
Writing library : x264 core 116 r2044 392e762
Encoding settings : cabac=1 / ref=4 / deblock=1:0:0 / analyse=0x3:0x113 / me=umh / subme=8 / psy=1 / psy_rd=1.00:0.00 / mixed_ref=1 / me_range=16 / chroma_me=1 / trellis=1 / 8x8dct=1 / cqm=0 / deadzone=21,11 / fast_pskip=1 / chroma_qp_offset=-2 / threads=12 / sliced_threads=0 / nr=0 / decimate=1 / interlaced=0 / bluray_compat=0 / constrained_intra=0 / bframes=3 / b_pyramid=2 / b_adapt=2 / b_bias=0 / direct=3 / weightb=1 / open_gop=0 / weightp=2 / keyint=250 / keyint_min=23 / scenecut=40 / intra_refresh=0 / rc_lookahead=50 / rc=2pass / mbtree=1 / bitrate=8027 / ratetol=1.0 / qcomp=0.60 / qpmin=0 / qpmax=69 / qpstep=4 / cplxblur=20.0 / qblur=0.5 / ip_ratio=1.40 / aq=1:1.00
Language : English
Audio #1
ID : 2
Format : AC-3
Format/Info : Audio Coding 3
Mode extension : CM (complete main)
Codec ID : A_AC3
Duration : 1h 50mn
Bit rate mode : Constant
Bit rate : 448 Kbps
Channel(s) : 6 channels
Channel positions : Front: L C R, Side: L R, LFE
Sampling rate : 48.0 KHz
Bit depth : 16 bits
Compression mode : Lossy
Stream size : 355 MiB (5%)
Title : AC3 5.1 @ 448 Kbps - Dub, NTV +
Language : Russian
Audio #2
ID : 3
Format : AC-3
Format/Info : Audio Coding 3
Mode extension : CM (complete main)
Codec ID : A_AC3
Duration : 1h 50mn
Bit rate mode : Constant
Bit rate : 448 Kbps
Channel(s) : 6 channels
Channel positions : Front: L C R, Side: L R, LFE
Sampling rate : 48.0 KHz
Bit depth : 16 bits
Compression mode : Lossy
Stream size : 355 MiB (5%)
Title : AC3 5.1 @ 448 Kbps
Language : English
Menu
00:00:00.000 : en:00:00:00.000
00:09:41.414 : en:00:09:41.414
00:20:34.191 : en:00:20:34.191
00:31:15.916 : en:00:31:15.916
00:39:58.396 : en:00:39:58.396
00:48:29.782 : en:00:48:29.782
00:57:41.958 : en:00:57:41.958
01:06:37.744 : en:01:06:37.744
01:15:48.210 : en:01:15:48.210
01:24:44.288 : en:01:24:44.288
01:34:07.100 : en:01:34:07.100
01:43:25.574 : en:01:43:25.574
-- --        --

_________________
Other forum [Profile] [PM]
Display posts from previous:    
Reply to topic

The time now is: Today 08:50

All times are GMT + 3 Hours



You cannot post new topics in this forum
You cannot reply to topics in this forum
You cannot edit your posts in this forum
You cannot delete your posts in this forum
You cannot vote in polls in this forum
You cannot attach files in this forum
You cannot download files in this forum