Today is a free download without charge Download

Крепкий орешек: Квадрология (Юбилейное издание) / The Die Hard Quadrilogy (25th Anniversary Collection) (John McTiernan, Renny Harlin, Len Wiseman) [1988-2007 гг., боевик, триллер, BDRip 1080p] Dub + MVO + 2AVO + Original + Subs (Rus, Eng)

Reply to topic
 
Author
Message

Omen ®

Longevity: 8 years 5 months

Posts: 181087

Торрент-статистика

Post 29-May-2013 22:18

[Quote]

--

Крепкий орешек / Die Hard

Крепкий орешек / Die Hard- -Год выпуска: 1988
Страна: США, Великобритания
Жанр: боевик, триллер
Продолжительность: 02:12:10
Перевод №1: Профессиональный (полное дублирование)
Перевод №2: Профессиональный (многоголосый закадровый, ОРТ)
Перевод №3: Авторский (одноголосый закадровый, А.Гаврилов)
Перевод №4: Авторский (одноголосый закадровый, Ю.Живов)
Субтитры: Русские, Английские-Режиссер: Джон МакТирнан / John McTiernan
Сценарий: Джеб Стюарт / Jeb Stuart, Стивен Е. де Соуза / Steven E. de Souza, Родерик Торп / Roderick Thorp
Продюсер: Лоуренс Гордон / Lawrence Gordon, Джоэл Силвер / Joel Silver, Чарльз Гордон / Charles Gordon, Бо Маркс / Beau Marks
Оператор: Ян де Бонт / Jan de Bont
Композитор: Майкл Кэмен / Michael Kamen
В ролях: Брюс Уиллис / Bruce Willis (Officer John McClane), Алан Рикман / Alan Rickman (Hans Gruber), Бонни Беделиа / Bonnie Bedelia (Holly Gennaro McClane), Реджинальд ВелДжонсон / Reginald VelJohnson (Sgt. Al Powell), Пол Глисон / Paul Gleason (Deputy Police Chief Dwayne T. Robinson), Уильям Этертон / William Atherton (Richard Thornburg), Харт Бокнер / Hart Bochner (Harry Ellis), Джеймс Шигета / James Shigeta (Joseph Yoshinobu Takagi), Александр Годунов / Alexander Godunov (Karl), Роберт Дави / Robert Davi (FBI Special Agent Big Johnson), Гранд Л. Буш / Grand L. Bush (FBI Agent Little Johnson), Бруно Доуон / Bruno Doyon (Franco)-Описание: В суперсовременном небоскребе Лос-Анджелеса полицейский Джон Макклейн ведет смертельную схватку с бандой политических террористов, взявших в заложники два десятка человек, в число которых попадает и его жена. Началось все с того, что парень приехал в город к жене, оказался на рождественском приеме, а кончилось настоящей войной...- -Качество: Blu-ray Rip 1080p
Формат: MKV
Видео: MPEG-4 AVC (H264), High Profile 4.1, 1920x812, 23.976 fps, ~19400 kbps avg, bit/(pixel*frame) 0.518
Аудио №1: Russian: 48 kHz, DTS, 3/2 (L,C,R,l,r) + LFE ch, ~768.00 kbps avg //дубляж CEE
Аудио №2: Russian: 48 kHz, DTS, 3/2 (L,C,R,l,r) + LFE ch, ~755.00 kbps avg //многоголосый закадровый (ОРТ)
Аудио №3: Russian: 48 kHz, DTS, 3/2 (L,C,R,l,r) + LFE ch, ~1510.00 kbps avg //одноголосый закадровый (А.Гаврилов)
Аудио №4: Russian: 48 kHz, DTS, 3/2 (L,C,R,l,r) + LFE ch, ~1510.00 kbps avg //одноголосый закадровый (Ю.Живов)
Аудио №5: English: 48 kHz, DTS, 3/2 (L,C,R,l,r) + LFE ch, ~1510.00 kbps avg //original
Субтитры: Russian (forced), Russian (full), English (Softsub SRT)
Навигация по главам: есть
Остальные озвучки отдельной раздачей-

Скриншоты

Blu-Ray vs Rip







MediaInfo

L:\movie HD VII\Die Hard [Крепкий орешек]\Die Hard 1 [Крепкий орешек 1] (1988) 1920x812 BDRip RusEngSubsChpt.mkv
General
Unique ID : 182425699694512893298456842329064279051 (0x893DE9698BA1D941BD4D37FDA4C50C0B)
Complete name : L:\movie HD VII\Die Hard [Крепкий орешек]\Die Hard 1 [Крепкий орешек 1] (1988) 1920x812 BDRip RusEngSubsChpt.mkv
Format : Matroska
Format version : Version 4 / Version 2
File size : 23.9 GiB
Duration : 2h 12mn
Overall bit rate : 25.9 Mbps
Movie name : -=RbM=-
Encoded date : UTC 2013-05-26 10:42:00
Writing application : mkvmerge v6.2.0 ('Promised Land') built on Apr 28 2013 12:22:01
Writing library : libebml v1.3.0 + libmatroska v1.4.0
Video #1
ID : 1
Format : AVC
Format/Info : Advanced Video Codec
Format profile : [email protected]
Format settings, CABAC : Yes
Format settings, ReFrames : 5 frames
Codec ID : V_MPEG4/ISO/AVC
Duration : 2h 12mn
Bit rate : 19.4 Mbps
Width : 1 920 pixels
Height : 812 pixels
Display aspect ratio : 2.35:1
Frame rate mode : Constant
Frame rate : 23.976 fps
Color space : YUV
Chroma subsampling : 4:2:0
Bit depth : 8 bits
Scan type : Progressive
Bits/(Pixel*Frame) : 0.518
Stream size : 17.9 GiB (75%)
Title : 61% of the original
Writing library : x264 core 133 r2334+704+50 a7549b7 tMod [[email protected] X86]
Encoding settings : cabac=1 / ref=5 / deblock=1:-2:-2 / analyse=0x3:0x133 / me=umh / subme=11 / psy=1 / fade_compensate=0.00 / psy_rd=1.00:0.10 / mixed_ref=1 / me_range=32 / chroma_me=1 / trellis=2 / 8x8dct=1 / cqm=0 / deadzone=21,11 / fast_pskip=0 / chroma_qp_offset=-3 / threads=12 / lookahead_threads=3 / sliced_threads=0 / nr=0 / decimate=1 / interlaced=0 / bluray_compat=0 / constrained_intra=0 / fgo=0 / bframes=11 / b_pyramid=2 / b_adapt=2 / b_bias=0 / direct=3 / weightb=1 / open_gop=0 / weightp=2 / keyint=240 / keyint_min=23 / scenecut=40 / intra_refresh=0 / rc=crf / mbtree=0 / crf=18.0000 / qcomp=0.60 / qpmin=0 / qpmax=69 / qpstep=4 / ip_ratio=1.25 / pb_ratio=1.15 / aq=3:0.60 / aq-sensitivity=10.00 / aq-factor=1.00:1.00:1.00 / aq2=0 / aq3=0
Language : English
Default : Yes
Forced : No
Color primaries : BT.709
Transfer characteristics : BT.709
Matrix coefficients : BT.709
Audio #2
ID : 2
Format : DTS
Format/Info : Digital Theater Systems
Mode : 16
Format settings, Endianness : Big
Codec ID : A_DTS
Duration : 2h 12mn
Bit rate mode : Constant
Bit rate : 768 Kbps
Channel(s) : 6 channels
Channel positions : Front: L C R, Side: L R, LFE
Sampling rate : 48.0 KHz
Bit depth : 24 bits
Compression mode : Lossy
Stream size : 726 MiB (3%)
Title : Dub DTS 5.1ch 768kbps
Language : Russian
Default : Yes
Forced : No
Audio #3
ID : 3
Format : DTS
Format/Info : Digital Theater Systems
Mode : 16
Format settings, Endianness : Big
Codec ID : A_DTS
Duration : 2h 12mn
Bit rate mode : Constant
Bit rate : 755 Kbps
Channel(s) : 6 channels
Channel positions : Front: L C R, Side: L R, LFE
Sampling rate : 48.0 KHz
Bit depth : 24 bits
Compression mode : Lossy
Stream size : 713 MiB (3%)
Title : MVO DTS 5.1ch 755kbps (ОРТ)
Language : Russian
Default : No
Forced : No
Audio #4
ID : 4
Format : DTS
Format/Info : Digital Theater Systems
Mode : 16
Format settings, Endianness : Big
Codec ID : A_DTS
Duration : 2h 12mn
Bit rate mode : Constant
Bit rate : 1 509 Kbps
Channel(s) : 6 channels
Channel positions : Front: L C R, Side: L R, LFE
Sampling rate : 48.0 KHz
Bit depth : 24 bits
Compression mode : Lossy
Stream size : 1.39 GiB (6%)
Title : AVO DTS 5.1ch 1510kbps (А.Гаврилов)
Language : Russian
Default : No
Forced : No
Audio #5
ID : 5
Format : DTS
Format/Info : Digital Theater Systems
Mode : 16
Format settings, Endianness : Big
Codec ID : A_DTS
Duration : 2h 12mn
Bit rate mode : Constant
Bit rate : 1 509 Kbps
Channel(s) : 6 channels
Channel positions : Front: L C R, Side: L R, LFE
Sampling rate : 48.0 KHz
Bit depth : 24 bits
Compression mode : Lossy
Stream size : 1.39 GiB (6%)
Title : AVO DTS 5.1ch 1510kbps (Ю.Живов)
Language : Russian
Default : No
Forced : No
Audio #6
ID : 6
Format : DTS
Format/Info : Digital Theater Systems
Mode : 16
Format settings, Endianness : Big
Codec ID : A_DTS
Duration : 2h 12mn
Bit rate mode : Constant
Bit rate : 1 509 Kbps
Channel(s) : 6 channels
Channel positions : Front: L C R, Side: L R, LFE
Sampling rate : 48.0 KHz
Bit depth : 24 bits
Compression mode : Lossy
Stream size : 1.39 GiB (6%)
Title : Original DTS 5.1ch 1510kbps
Language : English
Default : No
Forced : No
Text #7
ID : 7
Format : UTF-8
Codec ID : S_TEXT/UTF8
Codec ID/Info : UTF-8 Plain Text
Title : forced
Language : Russian
Default : Yes
Forced : No
Text #8
ID : 8
Format : UTF-8
Codec ID : S_TEXT/UTF8
Codec ID/Info : UTF-8 Plain Text
Title : full
Language : Russian
Default : No
Forced : No
Text #9
ID : 9
Format : UTF-8
Codec ID : S_TEXT/UTF8
Codec ID/Info : UTF-8 Plain Text
Language : English
Default : No
Forced : No
Menu
00:00:00.000 : en:Landing in L.a.
00:02:21.391 : en:Festival Night
00:03:57.779 : en:Mcclane Residence
00:05:11.937 : en:Argyle
00:06:09.828 : en:The Limo
00:07:50.929 : en:Nakatomi Plaza
00:11:58.134 : en:Takagi & Ellis
00:13:17.922 : en:Reunited
00:14:03.092 : en:Uninvited Guests
00:14:18.357 : en:Seperation Anxiety
00:16:58.309 : en:Hostile Takeover
00:21:00.467 : en:Disconnected Parties
00:22:41.986 : en:Party Crashers
00:24:53.242 : en:Meet Hans Gruber
00:26:50.317 : en:Industrialization and Men's Fashions
00:28:50.228 : en:Fill in the Blanks
00:33:24.461 : en:The Vault
00:34:08.630 : en:False Alarm
00:35:26.416 : en:I Promise I Won't Hurt You
00:38:18.671 : en:Ho Ho Ho
00:42:33.593 : en:Blood Lust
00:43:24.143 : en:Mayday
00:45:18.424 : en:Twinkie Patrol
00:47:59.418 : en:The Shaft
00:52:39.031 : en:Not a Creature Stirring
00:56:49.156 : en:Welcome to the Party, Pal
00:57:55.222 : en:Dick Thornburg
00:58:38.723 : en:Mr. Mystery Guest
01:00:49.479 : en:Kflw News
01:01:38.862 : en:Missing Detonators
01:04:18.396 : en:L.a.'s Finest
01:07:44.102 : en:Going In
01:12:58.290 : en:Lapd Rv
01:15:19.056 : en:Chair Bomb
01:19:14.750 : en:Contract Negotiations
01:26:10.790 : en:Issuing Demands
01:28:49.783 : en:Hostage Terrorist, Terrorist Hostage
01:29:27.237 : en:Johnson & Johnson
01:30:06.943 : en:Cat and Mouse
01:35:43.446 : en:Shoot the Glass
01:38:57.973 : en:Powell's Confession
01:41:26.747 : en:Merry Christmas From the Fbi
01:45:24.610 : en:Mcclaine's Confession
01:47:45.000 : en:Nightly News
01:48:10.943 : en:Vendetta
01:49:49.958 : en:Meeting Mrs. Mcclane
01:51:09.413 : en:Choppers Up the Ass
01:54:16.016 : en:The Roof
01:58:22.762 : en:Escape Plan Foiled
01:59:44.260 : en:Showdown
02:02:00.605 : en:Happy Trails, Hans
02:03:48.838 : en:Partner's Meet
02:05:13.130 : en:Powell's Comeback
02:06:28.122 : en:Let It Snow
02:07:19.048 : en:End Credits

x264 log

x264 [info]: frame I:1047 Avg QP:16.78 size:184013 PSNR Mean Y:47.82 U:52.89 V:54.37 Avg:48.91 Global:48.57
x264 [info]: frame P:36998 Avg QP:17.76 size:125410 PSNR Mean Y:46.56 U:52.55 V:54.18 Avg:47.71 Global:47.37
x264 [info]: frame B:152096 Avg QP:18.91 size: 97830 PSNR Mean Y:45.25 U:51.34 V:53.21 Avg:46.46 Global:46.12
x264 [info]: consecutive B-frames: 1.4% 2.8% 2.9% 20.5% 7.3% 41.7% 3.9% 11.1% 1.4% 0.7% 1.8% 4.7%
x264 [info]: mb I I16..4: 4.4% 91.6% 4.0%
x264 [info]: mb P I16..4: 0.8% 54.4% 0.6% P16..4: 14.9% 19.6% 6.0% 0.6% 0.0% skip: 3.1%
x264 [info]: mb B I16..4: 0.1% 23.9% 0.1% B16..8: 30.3% 22.9% 5.0% direct:11.4% skip: 6.2% L0:43.3% L1:39.5% BI:17.2%
x264 [info]: 8x8 transform intra:98.4% inter:58.6%
x264 [info]: direct mvs spatial:100.0% temporal:0.0%
x264 [info]: coded y,uvDC,uvAC intra: 98.6% 88.3% 62.3% inter: 68.9% 57.7% 6.6%
x264 [info]: i16 v,h,dc,p: 44% 10% 11% 35%
x264 [info]: i8 v,h,dc,ddl,ddr,vr,hd,vl,hu: 8% 8% 18% 10% 12% 10% 11% 11% 13%
x264 [info]: i4 v,h,dc,ddl,ddr,vr,hd,vl,hu: 11% 8% 6% 9% 15% 13% 14% 11% 13%
x264 [info]: i8c dc,h,v,p: 46% 22% 19% 13%
x264 [info]: Weighted P-Frames: Y:20.9% UV:17.5%
x264 [info]: ref P L0: 46.1% 9.2% 20.7% 13.9% 8.8% 1.2% 0.1%
x264 [info]: ref B L0: 71.2% 20.7% 6.9% 1.2%
x264 [info]: ref B L1: 86.4% 13.6%
x264 [info]: SSIM Mean Y:0.9775401 (16.486db)
x264 [info]: PSNR Mean Y:45.521 U:51.584 V:53.402 Avg:46.714 Global:46.344 kb/s:19884.90
x264 [info]: encoded 190141 frames, 2.734 fps, 19884.91 kb/s, 18799 MB
x264 [info]: ended at Sat May 25 02:42:41 2013
x264 [info]: encoding duration 19:19:11

Крепкий орешек 2 / Die Hard 2 - Die Harder

Крепкий орешек 2 / Die Hard 2 - Die Harder«Yippee Ki Yay, All over again!»- -Год выпуска: 1990
Страна: США, Великобритания
Жанр: боевик, триллер
Продолжительность: 02:03:23
Перевод №1: Профессиональный (полное дублирование)
Перевод №2: Профессиональный (многоголосый закадровый, ОРТ)
Перевод №3: Авторский (одноголосый закадровый, А.Гаврилов)
Перевод №4: Авторский (одноголосый закадровый, Ю.Живов)
Субтитры: Русские, Английские-Режиссер: Ренни Харлин / Renny Harlin
Сценарий: Стивен Е. де Соуза / Steven E. de Souza, Даг Ричардсон / Doug Richardson, Уолтер Уэйджер / Walter Wager
Продюсер: Чарльз Гордон / Charles Gordon, Лоуренс Гордон / Lawrence Gordon, Джоэл Силвер / Joel Silver, Джеймс Херберт / James Herbert, Ллойд Левин / Lloyd Levin и др.
Оператор: Оливер Вуд / Oliver Wood
Композитор: Майкл Кэмен / Michael Kamen
В ролях: Брюс Уиллис / Bruce Willis (Lt. John McClane), Бонни Беделиа / Bonnie Bedelia (Holly McClane), Уильям Сэдлер / William Sadler (Col. Stuart), Франко Неро / Franco Nero (Gen. Ramon Esperanza), Уильям Этертон / William Atherton (Richard Thornburg), Деннис Франц / Dennis Franz (Capt. Carmine Lorenzo), Джон Эймос / John Amos (Maj. Grant), Арт Эванс / Art Evans (Leslie Barnes), Фред Долтон Томпсон / Fred Dalton Thompson (Trudeau), Реджинальд ВелДжонсон / Reginald VelJohnson (Sgt. Al Powell), Том Бауэр / Tom Bower (Marvin), Шила МакКарти / Sheila McCarthy (Samantha «Sam» Coleman)-Описание: В канун Рождества группа террористов захватила международный аэропорт и теперь удерживает тысячи путешествующих в качестве заложников. Террористы — банда отступников из первоклассно вооруженных коммандос, возглавляемых одержимым жестокостью офицером. Их цель — спасти наркобарона.
Банда подготовлена ко всевозможным случайностям, за исключением одной — встречи с Джоном Макклейном. Брюс Уиллис возвращается в роли супергероя-полицейского, который сражается не только с террористами, но и с некомпетентным шефом полиции аэропорта, тупоголовым начальником антитеррористического подразделения и страшным снежным бураном.
Заложники мечутся, смертельно испуганные и растерянные. А Джон Макклейн ведет схватку и со временем. Его жена находится в одном из самолетов, кружащих над аэропортом. А топливо — на пределе...
- -Качество: Blu-ray Rip 1080p
Формат: MKV
Видео: MPEG-4 AVC (H264), High Profile 4.1, 1920x812, 23.976 fps, ~16100 kbps avg, bit/(pixel*frame) 0.430
Аудио №1: Russian: 48 kHz, DTS, 3/2 (L,C,R,l,r) + LFE ch, ~768.00 kbps avg //дубляж CEE
Аудио №2: Russian: 48 kHz, DTS, 3/2 (L,C,R,l,r) + LFE ch, ~755.00 kbps avg //многоголосый закадровый (ОРТ)
Аудио №3: Russian: 48 kHz, DTS, 3/2 (L,C,R,l,r) + LFE ch, ~1510.00 kbps avg //одноголосый закадровый (А.Гаврилов)
Аудио №4: Russian: 48 kHz, DTS, 3/2 (L,C,R,l,r) + LFE ch, ~1510.00 kbps avg //одноголосый закадровый (Ю.Живов)
Аудио №5: English: 48 kHz, DTS, 3/2 (L,C,R,l,r) + LFE ch, ~1510.00 kbps avg //original
Субтитры: Russian, English (Softsub SRT)
Навигация по главам: есть
Остальные озвучки отдельной раздачей-

Скриншоты

Blu-Ray vs Rip







MediaInfo

L:\movie HD VII\Die Hard [Крепкий орешек]\Die Hard II - Die Harder [Крепкий орешек 2] (1990) 1920x812 BDRip -=RbM=- RusEngSubsChpt.mkv
General
Unique ID : 185010090409399509599167549692299506283 (0x8B2FA5B6537A1DF5A6DAAF5219D8F26B)
Complete name : L:\movie HD VII\Die Hard [Крепкий орешек]\Die Hard II - Die Harder [Крепкий орешек 2] (1990) 1920x812 BDRip RusEngSubsChpt.mkv
Format : Matroska
Format version : Version 4 / Version 2
File size : 19.4 GiB
Duration : 2h 3mn
Overall bit rate : 22.6 Mbps
Movie name : -=RbM=-
Encoded date : UTC 2013-05-27 13:33:39
Writing application : mkvmerge v6.2.0 ('Promised Land') built on Apr 28 2013 12:22:01
Writing library : libebml v1.3.0 + libmatroska v1.4.0
Video #1
ID : 1
Format : AVC
Format/Info : Advanced Video Codec
Format profile : [email protected]
Format settings, CABAC : Yes
Format settings, ReFrames : 5 frames
Codec ID : V_MPEG4/ISO/AVC
Duration : 2h 3mn
Bit rate : 16.1 Mbps
Width : 1 920 pixels
Height : 812 pixels
Display aspect ratio : 2.35:1
Frame rate mode : Constant
Frame rate : 23.976 fps
Color space : YUV
Chroma subsampling : 4:2:0
Bit depth : 8 bits
Scan type : Progressive
Bits/(Pixel*Frame) : 0.430
Stream size : 13.8 GiB (71%)
Title : 52% of the original
Writing library : x264 core 133 r2334+704+50 a7549b7 tMod [[email protected] X86_64]
Encoding settings : cabac=1 / ref=5 / deblock=1:-2:-2 / analyse=0x3:0x133 / me=umh / subme=11 / psy=1 / fade_compensate=0.00 / psy_rd=1.15:0.15 / mixed_ref=1 / me_range=32 / chroma_me=1 / trellis=2 / 8x8dct=1 / cqm=0 / deadzone=21,11 / fast_pskip=0 / chroma_qp_offset=-3 / threads=12 / lookahead_threads=3 / sliced_threads=0 / nr=0 / decimate=1 / interlaced=0 / bluray_compat=0 / constrained_intra=0 / fgo=0 / bframes=12 / b_pyramid=2 / b_adapt=2 / b_bias=0 / direct=3 / weightb=1 / open_gop=0 / weightp=2 / keyint=240 / keyint_min=23 / scenecut=40 / intra_refresh=0 / rc=crf / mbtree=0 / crf=16.5000 / qcomp=0.60 / qpmin=0 / qpmax=69 / qpstep=4 / ip_ratio=1.40 / pb_ratio=1.30 / aq=4:0.60 / aq-sensitivity=10.00 / aq-factor=1.00:1.00:1.00 / aq2=0 / aq3=0
Language : English
Default : Yes
Forced : No
Color primaries : BT.709
Transfer characteristics : BT.709
Matrix coefficients : BT.709
Audio #2
ID : 2
Format : DTS
Format/Info : Digital Theater Systems
Mode : 16
Format settings, Endianness : Big
Codec ID : A_DTS
Duration : 2h 3mn
Bit rate mode : Constant
Bit rate : 768 Kbps
Channel(s) : 6 channels
Channel positions : Front: L C R, Side: L R, LFE
Sampling rate : 48.0 KHz
Bit depth : 24 bits
Compression mode : Lossy
Stream size : 678 MiB (3%)
Title : Dub DTS 5.1ch 768kbps
Language : Russian
Default : Yes
Forced : No
Audio #3
ID : 3
Format : DTS
Format/Info : Digital Theater Systems
Mode : 16
Format settings, Endianness : Big
Codec ID : A_DTS
Duration : 2h 3mn
Bit rate mode : Constant
Bit rate : 755 Kbps
Channel(s) : 6 channels
Channel positions : Front: L C R, Side: L R, LFE
Sampling rate : 48.0 KHz
Bit depth : 24 bits
Compression mode : Lossy
Stream size : 666 MiB (3%)
Title : MVO DTS 5.1ch 755kbps
Language : Russian
Default : No
Forced : No
Audio #4
ID : 4
Format : DTS
Format/Info : Digital Theater Systems
Mode : 16
Format settings, Endianness : Big
Codec ID : A_DTS
Duration : 2h 3mn
Bit rate mode : Constant
Bit rate : 1 509 Kbps
Channel(s) : 6 channels
Channel positions : Front: L C R, Side: L R, LFE
Sampling rate : 48.0 KHz
Bit depth : 16 bits
Compression mode : Lossy
Stream size : 1.30 GiB (7%)
Title : AVO DTS 5.1ch 1510kbps (А.Гаврилов)
Language : Russian
Default : No
Forced : No
Audio #5
ID : 5
Format : DTS
Format/Info : Digital Theater Systems
Mode : 16
Format settings, Endianness : Big
Codec ID : A_DTS
Duration : 2h 3mn
Bit rate mode : Constant
Bit rate : 1 509 Kbps
Channel(s) : 6 channels
Channel positions : Front: L C R, Side: L R, LFE
Sampling rate : 48.0 KHz
Bit depth : 16 bits
Compression mode : Lossy
Stream size : 1.30 GiB (7%)
Title : AVO DTS 5.1ch 1510kbps (Ю.Живов)
Language : Russian
Default : No
Forced : No
Audio #6
ID : 6
Format : DTS
Format/Info : Digital Theater Systems
Mode : 16
Format settings, Endianness : Big
Codec ID : A_DTS
Duration : 2h 3mn
Bit rate mode : Constant
Bit rate : 1 509 Kbps
Channel(s) : 6 channels
Channel positions : Front: L C R, Side: L R, LFE
Sampling rate : 48.0 KHz
Bit depth : 24 bits
Compression mode : Lossy
Stream size : 1.30 GiB (7%)
Title : Original DTS 5.1ch 1510kbps
Language : English
Default : No
Forced : No
Text #7
ID : 7
Format : UTF-8
Codec ID : S_TEXT/UTF8
Codec ID/Info : UTF-8 Plain Text
Language : Russian
Default : No
Forced : No
Text #8
ID : 8
Format : UTF-8
Codec ID : S_TEXT/UTF8
Codec ID/Info : UTF-8 Plain Text
Language : English
Default : No
Forced : No
Menu
00:00:00.000 : en:Main Title: Merry Christmas!
00:06:14.583 : en:The Church of Choice
00:08:14.536 : en:At The Airport
00:12:15.693 : en:Baggage Mishandling
00:16:21.439 : en:Cabin Fever
00:18:32.695 : en:The Colonel's Headquarters
00:19:32.129 : en:A Chat With Lorenzo
00:23:22.735 : en:Esperanza Enroute
00:25:09.925 : en:Powell on The Line
00:27:03.247 : en:Traffic Control
00:29:48.078 : en:McClane Raises a Question
00:36:46.246 : en:McClane Gets Evicted
00:39:14.769 : en:Another Plan
00:40:02.775 : en:Marvin
00:43:37.156 : en:Shootout at The Skywalk
00:48:58.477 : en:Closer Than 50 Yards
00:49:57.036 : en:Paying The Penalty
00:52:30.731 : en:Learning a Lesson
00:58:29.673 : en:Aftermath
01:01:43.950 : en:Thornberg Tunes In
01:02:39.923 : en:The Anti-Terrorist Team
01:04:47.383 : en:The Outer Marker
01:06:38.411 : en:Thornberg Gets A Scoop
01:08:12.255 : en:The Right Frequency
01:09:54.440 : en:A New Position
01:10:59.755 : en:The Falcon Is Landing
01:16:23.245 : en:Emergency Exit
01:21:56.370 : en:The Old Plans
01:23:27.211 : en:The Old Church
01:25:40.886 : en:The Raid
01:30:53.990 : en:On Thin Ice
01:33:17.634 : en:The Enemy Within
01:34:23.157 : en:Thornberg Goes Live
01:41:09.689 : en:The Getaway
01:42:31.854 : en:Crash Positions
01:44:53.162 : en:Hitching A Ride
01:46:36.432 : en:Wing Walkers
01:49:13.255 : en:Landing Lights
01:53:34.433 : en:Holly!
01:56:08.712 : en:End Titles (Let It Snow)

x264 log

x264 [info]: frame I:1069 Avg QP:14.93 size:180937 PSNR Mean Y:49.98 U:54.13 V:54.45 Avg:50.96 Global:50.56
x264 [info]: frame P:36338 Avg QP:16.07 size:125226 PSNR Mean Y:48.99 U:53.24 V:53.68 Avg:50.00 Global:49.51
x264 [info]: frame B:140088 Avg QP:18.06 size: 75139 PSNR Mean Y:47.01 U:51.75 V:52.30 Avg:48.10 Global:47.52
x264 [info]: consecutive B-frames: 1.8% 3.0% 4.6% 23.2% 8.1% 37.5% 6.0% 8.2% 1.2% 0.5% 0.6% 4.8% 0.6%
x264 [info]: mb I I16..4: 7.5% 85.2% 7.3%
x264 [info]: mb P I16..4: 1.8% 66.4% 2.2% P16..4: 8.3% 11.6% 4.3% 0.7% 0.0% skip: 4.6%
x264 [info]: mb B I16..4: 0.2% 19.1% 0.2% B16..8: 29.4% 25.6% 5.0% direct:13.4% skip: 7.0% L0:43.1% L1:37.5% BI:19.4%
x264 [info]: 8x8 transform intra:95.9% inter:38.8%
x264 [info]: direct mvs spatial:100.0% temporal:0.0%
x264 [info]: coded y,uvDC,uvAC intra: 98.9% 91.7% 66.2% inter: 68.3% 61.0% 5.0%
x264 [info]: i16 v,h,dc,p: 13% 3% 9% 75%
x264 [info]: i8 v,h,dc,ddl,ddr,vr,hd,vl,hu: 8% 11% 17% 8% 10% 8% 12% 10% 16%
x264 [info]: i4 v,h,dc,ddl,ddr,vr,hd,vl,hu: 7% 8% 4% 9% 15% 13% 17% 10% 15%
x264 [info]: i8c dc,h,v,p: 48% 23% 18% 12%
x264 [info]: Weighted P-Frames: Y:21.8% UV:16.8%
x264 [info]: ref P L0: 43.6% 10.5% 22.8% 12.8% 9.0% 1.2% 0.1%
x264 [info]: ref B L0: 71.0% 21.1% 6.7% 1.1%
x264 [info]: ref B L1: 86.9% 13.1%
x264 [info]: SSIM Mean Y:0.9826663 (17.611db)
x264 [info]: PSNR Mean Y:47.434 U:52.073 V:52.596 Avg:48.504 Global:47.874 kb/s:16501.31
x264 [info]: encoded 177495 frames, 4.350 fps, 16501.31 kb/s, 14563 MB
x264 [info]: ended at Mon May 27 18:20:17 2013
x264 [info]: encoding duration 11:20:04

Крепкий орешек 3: Возмездие / Die Hard: With a Vengeance

Крепкий орешек 3: Возмездие / Die Hard: With a Vengeance«John McClane is about to have a very bad day»- -Год выпуска: 1995
Страна: США, Великобритания
Жанр: боевик, триллер
Продолжительность: 02:08:31
Перевод №1: Профессиональный (многоголосый закадровый, ОРТ)
Перевод №2: Авторский (одноголосый закадровый, А.Гаврилов)
Перевод №3: Авторский (одноголосый закадровый, Ю.Живов)
Субтитры: Русские, Английские-Режиссер: Джон МакТирнан / John McTiernan
Сценарий: Джонатан Хенсли / Jonathan Hensleigh, Родерик Торп / Roderick Thorp
Продюсер: Джон МакТирнан / John McTiernan, Майкл Тадросс / Michael Tadross, Базз Фейтшанс / Buzz Feitshans, Роберт Лоуренс / Robert Lawrence и др.
Оператор: Питер Мензиес мл. / Peter Menzies Jr.
Композитор: Майкл Кэмен / Michael Kamen
В ролях: Брюс Уиллис / Bruce Willis (John McClane), Сэмюэл Л. Джексон / Samuel L. Jackson (Zeus Carver), Джереми Айронс / Jeremy Irons (Simon Gruber), Ларри Бриггман / Larry Bryggman (Insp. Walter Cobb), Грэм Грин / Graham Greene (Joe Lambert), Коллин Кэмп / Colleen Camp (Connie Kowalski), Энтони Пек / Anthony Peck (Ricky Walsh), Николас Уаймэн / Nicholas Wyman (Mathias Targo), Сэм Филлипс / Sam Phillips (Katya), Кевин Чэмберлин / Kevin Chamberlin (Charles Weiss), Шэрон Вашингтон / Sharon Washington (Officer Jane), Стивен Перлман / Stephen Pearlman (Dr. Fred Schiller)-Описание: На улицах Нью-Йорка офицер полиции Джон Макклейн видел все, что только возможно. На этот раз для того, чтобы отомстить Макклейну, террорист Саймон, виртуозно устраивающий взрывы, заставляет героя — полицейского играть в смертельную игру. Ставка — город Нью-Йорк.
Макклейн вынужден метаться по городу, следуя телефонным указаниям Саймона, готового разнести пол — Нью-Йорка за малейшее отклонение от его требований. И в то время, как вся полиция города занята поисками террористов, преступники похищают золотой запас Национального банка США.
У Макклейна бывали неудачные деньки за годы службы в полиции, но сегодня у него, похоже, будет исключительно скверный день...
- -Качество: Blu-ray Rip 1080p
Формат: MKV
Видео: MPEG-4 AVC (H264), High Profile 4.1, 1920x818, 23.976 fps, ~19300 kbps avg, bit/(pixel*frame) 0.512
Аудио №1: Russian: 48 kHz, DTS, 3/2 (L,C,R,l,r) + LFE ch, ~755.00 kbps avg //многоголосый закадровый (ОРТ)
Аудио №2: Russian: 48 kHz, DTS, 3/2 (L,C,R,l,r) + LFE ch, ~1510.00 kbps avg //одноголосый закадровый (А.Гаврилов)
Аудио №3: Russian: 48 kHz, DTS, 3/2 (L,C,R,l,r) + LFE ch, ~1510.00 kbps avg //одноголосый закадровый (Ю.Живов)
Аудио №4: English: 48 kHz, DTS, 3/2 (L,C,R,l,r) + LFE ch, ~1510.00 kbps avg //original
Субтитры: Russian (forced), Russian (full), Russian (Twister), English, English SDH (Softsub SRT)
Навигация по главам: есть
Остальные озвучки отдельной раздачей-

Скриншоты

Blu-Ray vs Rip







MediaInfo

L:\movie HD VII\Die Hard [Крепкий орешек]\Die Hard III - With a Vengeance [Крепкий орешек 3 - Возмездие] (1995) 1920x818 BDRip RusEngSubsChpt.mkv
General
Unique ID : 203005033778907665303121554740699493158 (0x98B958EB6148EAC6BAB2DA1DAC247326)
Complete name : L:\movie HD VII\Die Hard [Крепкий орешек]\Die Hard III - With a Vengeance [Крепкий орешек 3 - Возмездие] (1995) 1920x818 BDRip RusEngSubsChpt.mkv
Format : Matroska
Format version : Version 4 / Version 2
File size : 22.5 GiB
Duration : 2h 8mn
Overall bit rate : 25.1 Mbps
Movie name : -=RbM=-
Encoded date : UTC 2013-05-29 14:16:17
Writing application : mkvmerge v6.2.0 ('Promised Land') built on Apr 28 2013 12:22:01
Writing library : libebml v1.3.0 + libmatroska v1.4.0
Video #1
ID : 1
Format : AVC
Format/Info : Advanced Video Codec
Format profile : [email protected]
Format settings, CABAC : Yes
Format settings, ReFrames : 5 frames
Codec ID : V_MPEG4/ISO/AVC
Duration : 2h 8mn
Bit rate : 19.3 Mbps
Width : 1 920 pixels
Height : 818 pixels
Display aspect ratio : 2.35:1
Frame rate mode : Constant
Frame rate : 23.976 fps
Color space : YUV
Chroma subsampling : 4:2:0
Bit depth : 8 bits
Scan type : Progressive
Bits/(Pixel*Frame) : 0.512
Stream size : 17.3 GiB (77%)
Title : 70% of the original
Writing library : x264 core 133 r2334+704+50 a7549b7 tMod [[email protected] X86]
Encoding settings : cabac=1 / ref=5 / deblock=1:-2:-2 / analyse=0x3:0x133 / me=umh / subme=11 / psy=1 / fade_compensate=0.00 / psy_rd=1.00:0.05 / mixed_ref=1 / me_range=32 / chroma_me=1 / trellis=2 / 8x8dct=1 / cqm=0 / deadzone=21,11 / fast_pskip=0 / chroma_qp_offset=-3 / threads=12 / lookahead_threads=3 / sliced_threads=0 / nr=0 / decimate=1 / interlaced=0 / bluray_compat=0 / constrained_intra=0 / fgo=0 / bframes=12 / b_pyramid=2 / b_adapt=2 / b_bias=0 / direct=3 / weightb=1 / open_gop=0 / weightp=2 / keyint=240 / keyint_min=23 / scenecut=40 / intra_refresh=0 / rc=crf / mbtree=0 / crf=18.0000 / qcomp=0.60 / qpmin=0 / qpmax=69 / qpstep=4 / ip_ratio=1.30 / pb_ratio=1.20 / aq=1:0.90 / aq-sensitivity=10.00 / aq-factor=1.00:1.00:1.00 / aq2=0 / aq3=0
Language : English
Default : Yes
Forced : No
Audio #2
ID : 2
Format : DTS
Format/Info : Digital Theater Systems
Mode : 16
Format settings, Endianness : Big
Codec ID : A_DTS
Duration : 2h 8mn
Bit rate mode : Constant
Bit rate : 755 Kbps
Channel(s) : 6 channels
Channel positions : Front: L C R, Side: L R, LFE
Sampling rate : 48.0 KHz
Bit depth : 24 bits
Compression mode : Lossy
Stream size : 694 MiB (3%)
Title : MVO DTS 5.1ch 755kbps (ОРТ)
Language : Russian
Default : Yes
Forced : No
Audio #3
ID : 3
Format : DTS
Format/Info : Digital Theater Systems
Mode : 16
Format settings, Endianness : Big
Codec ID : A_DTS
Duration : 2h 8mn
Bit rate mode : Constant
Bit rate : 1 509 Kbps
Channel(s) : 6 channels
Channel positions : Front: L C R, Side: L R, LFE
Sampling rate : 48.0 KHz
Bit depth : 16 bits
Compression mode : Lossy
Stream size : 1.35 GiB (6%)
Title : AVO DTS 5.1ch 1510kbps (А.Гаврилов)
Language : Russian
Default : No
Forced : No
Audio #4
ID : 4
Format : DTS
Format/Info : Digital Theater Systems
Mode : 16
Format settings, Endianness : Big
Codec ID : A_DTS
Duration : 2h 8mn
Bit rate mode : Constant
Bit rate : 1 509 Kbps
Channel(s) : 6 channels
Channel positions : Front: L C R, Side: L R, LFE
Sampling rate : 48.0 KHz
Bit depth : 16 bits
Compression mode : Lossy
Stream size : 1.35 GiB (6%)
Title : AVO DTS 5.1ch 1510kbps (Ю.Живов)
Language : Russian
Default : No
Forced : No
Audio #5
ID : 5
Format : DTS
Format/Info : Digital Theater Systems
Mode : 16
Format settings, Endianness : Big
Codec ID : A_DTS
Duration : 2h 8mn
Bit rate mode : Constant
Bit rate : 1 509 Kbps
Channel(s) : 6 channels
Channel positions : Front: L C R, Side: L R, LFE
Sampling rate : 48.0 KHz
Bit depth : 24 bits
Compression mode : Lossy
Stream size : 1.35 GiB (6%)
Title : Original DTS 5.1ch 1510kbps
Language : English
Default : No
Forced : No
Text #6
ID : 6
Format : UTF-8
Codec ID : S_TEXT/UTF8
Codec ID/Info : UTF-8 Plain Text
Title : forced
Language : Russian
Default : Yes
Forced : No
Text #7
ID : 7
Format : UTF-8
Codec ID : S_TEXT/UTF8
Codec ID/Info : UTF-8 Plain Text
Title : full
Language : Russian
Default : No
Forced : No
Text #8
ID : 8
Format : UTF-8
Codec ID : S_TEXT/UTF8
Codec ID/Info : UTF-8 Plain Text
Title : Twister
Language : Russian
Default : No
Forced : No
Text #9
ID : 9
Format : UTF-8
Codec ID : S_TEXT/UTF8
Codec ID/Info : UTF-8 Plain Text
Language : English
Default : No
Forced : No
Text #10
ID : 10
Format : UTF-8
Codec ID : S_TEXT/UTF8
Codec ID/Info : UTF-8 Plain Text
Title : SDH
Language : English
Default : No
Forced : No
Menu
00:00:00.000 : en:00:00:00.000
00:00:53.845 : en:00:00:53.845
00:01:53.989 : en:00:01:53.989
00:03:50.981 : en:00:03:50.981
00:07:58.144 : en:00:07:58.144
00:09:09.466 : en:00:09:09.466
00:13:38.151 : en:00:13:38.151
00:16:53.596 : en:00:16:53.596
00:22:55.374 : en:00:22:55.374
00:27:32.526 : en:00:27:32.526
00:32:39.499 : en:00:32:39.499
00:37:31.583 : en:00:37:31.583
00:40:18.249 : en:00:40:18.249
00:43:39.033 : en:00:43:39.033
00:48:48.300 : en:00:48:48.300
00:52:04.330 : en:00:52:04.330
00:52:38.739 : en:00:52:38.739
00:56:09.825 : en:00:56:09.825
00:58:38.932 : en:00:58:38.932
01:02:57.148 : en:01:02:57.148
01:04:43.630 : en:01:04:43.630
01:07:44.811 : en:01:07:44.811
01:11:36.375 : en:01:11:36.375
01:17:05.120 : en:01:17:05.120
01:20:17.646 : en:01:20:17.646
01:21:17.498 : en:01:21:17.498
01:24:42.661 : en:01:24:42.661
01:27:43.300 : en:01:27:43.300
01:28:20.670 : en:01:28:20.670
01:31:47.711 : en:01:31:47.711
01:32:35.508 : en:01:32:35.508
01:34:18.862 : en:01:34:18.862
01:39:24.417 : en:01:39:24.417
01:40:45.248 : en:01:40:45.248
01:43:52.935 : en:01:43:52.935
01:47:53.550 : en:01:47:53.550
01:53:03.527 : en:01:53:03.527
01:55:59.452 : en:01:55:59.452
01:59:27.202 : en:01:59:27.202
02:00:27.303 : en:02:00:27.303

x264 log

x264 [info]: frame I:994 Avg QP:18.21 size:188759 PSNR Mean Y:45.85 U:50.52 V:51.19 Avg:46.92 Global:46.62
x264 [info]: frame P:38859 Avg QP:19.07 size:134397 PSNR Mean Y:44.84 U:49.85 V:50.75 Avg:45.97 Global:45.61
x264 [info]: frame B:145043 Avg QP:20.69 size: 94238 PSNR Mean Y:43.34 U:49.06 V:50.20 Avg:44.56 Global:44.21
x264 [info]: consecutive B-frames: 1.5% 2.6% 9.7% 14.9% 10.7% 49.8% 4.8% 2.1% 1.5% 0.7% 0.4% 1.1% 0.2%
x264 [info]: mb I I16..4: 3.0% 93.1% 3.8%
x264 [info]: mb P I16..4: 0.4% 56.1% 1.2% P16..4: 14.6% 18.3% 6.0% 0.4% 0.0% skip: 3.0%
x264 [info]: mb B I16..4: 0.1% 18.3% 0.2% B16..8: 33.6% 23.9% 5.8% direct:10.8% skip: 7.3% L0:43.2% L1:40.4% BI:16.4%
x264 [info]: 8x8 transform intra:97.7% inter:70.3%
x264 [info]: direct mvs spatial:100.0% temporal:0.0%
x264 [info]: coded y,uvDC,uvAC intra: 98.2% 88.1% 55.5% inter: 74.5% 51.4% 3.6%
x264 [info]: i16 v,h,dc,p: 54% 18% 6% 22%
x264 [info]: i8 v,h,dc,ddl,ddr,vr,hd,vl,hu: 8% 7% 12% 10% 13% 11% 13% 11% 14%
x264 [info]: i4 v,h,dc,ddl,ddr,vr,hd,vl,hu: 35% 7% 7% 6% 10% 9% 10% 7% 9%
x264 [info]: i8c dc,h,v,p: 36% 28% 20% 17%
x264 [info]: Weighted P-Frames: Y:25.4% UV:19.4%
x264 [info]: ref P L0: 43.8% 12.8% 23.5% 10.1% 8.1% 1.6% 0.1%
x264 [info]: ref B L0: 77.1% 16.8% 4.9% 1.2%
x264 [info]: ref B L1: 92.4% 7.6%
x264 [info]: SSIM Mean Y:0.9710785 (15.388db)
x264 [info]: PSNR Mean Y:43.665 U:49.234 V:50.322 Avg:44.865 Global:44.475 kb/s:19791.90
x264 [info]: encoded 184896 frames, 2.887 fps, 19791.90 kb/s, 18195 MB
x264 [info]: ended at Wed May 29 00:38:22 2013
x264 [info]: encoding duration 17:47:15

Крепкий орешек 4.0 / Die Hard 4.0 - Live Free or Die Hard

Крепкий орешек 4.0 / Die Hard 4.0 - Live Free or Die Hard«Yippee Ki Yay Mo - John 6:27»- -Год выпуска: 2007
Страна: США, Великобритания
Жанр: боевик, триллер
Продолжительность: 02:08:42
Перевод №1: Профессиональный (полное дублирование)
Перевод №2: Профессиональный (многоголосый закадровый, Киномания)
Перевод №3: Авторский (одноголосый закадровый, А.Гаврилов)
Перевод №4: Авторский (одноголосый закадровый, Ю.Живов)
Субтитры: Русские, Английские-Режиссер: Лен Уайзман / Len Wiseman
Сценарий: Марк Бомбэк / Mark Bomback, Дэвид Маркони / David Marconi, Джон Карлин / John Carlin, Родерик Торп / Roderick Thorp
Продюсер: Майкл Фоттрел / Michael Fottrell, Стивен Дж. Идс / Stephen J. Eads, Арнольд Рифкин / Arnold Rifkin, Уильям Уишер мл.
/ William Wisher Jr.
Оператор: Саймон Дагган / Simon Duggan
Композитор: Марко Белтрами / Marco Beltrami
В ролях: Брюс Уиллис / Bruce Willis (John McClane), Джастин Лонг / Justin Long (Matthew «Matt» Farrell), Тимоти Олифант / Timothy Olyphant (Thomas Gabriel), Мэгги Кью / Maggie Q (Mai Linh), Клифф Кёртис / Cliff Curtis (FBI Deputy Director Miguel Bowman), Джонатан Садовский / Jonathan Sadowski (Trey), Мэри Элизабет Уинстэд / Mary Elizabeth Winstead (Lucy Gennaro McClane), Кевин Смит / Kevin Smith (Frederick «Warlock» Kaludis), Эндрю Фридман / Andrew Friedman (Casper), Сирил Раффаэлли / Cyril Raffaelli (Rand), Йорго Константин / Yorgo Constantine (Russo), Крис Палермо / Chris Palermo (Del)-Описание: Мир опять на краю гибели из-за новой террористической угрозы. В этот раз в «заложниках» оказывается всемирная компьютерная сеть. Правительство и спецслужбы бессильны, все готово погрузиться в хаос. Но на борьбу с нависшей над миром опасностью выходит наш старый герой Джон МакКлейн со своей неразлучной подругой «Береттой».
Он давно в отставке, но когда на карту поставлена жизнь членов его семьи, он не будет стоять в стороне и бросит вызов террористам. Однако в этот раз ему уже не справиться без молодого, но очень талантливого помощника...
- -Качество: Blu-ray Rip 1080p
Формат: MKV
Видео: MPEG-4 AVC (H264), High Profile 4.1, 1918x800, 23.976 fps, ~17600 kbps avg, bit/(pixel*frame) 0.480
Аудио №1: Russian: 48 kHz, DTS, 3/2 (L,C,R,l,r) + LFE ch, ~768.00 kbps avg //дубляж CEE
Аудио №2: Russian: 48 kHz, DTS, 3/2 (L,C,R,l,r) + LFE ch, ~755.00 kbps avg //многоголосый закадровый (Киномания)
Аудио №3: Russian: 48 kHz, DTS, 3/2 (L,C,R,l,r) + LFE ch, ~1510.00 kbps avg //одноголосый закадровый (А.Гаврилов)
Аудио №4: Russian: 48 kHz, DTS, 3/2 (L,C,R,l,r) + LFE ch, ~1510.00 kbps avg //одноголосый закадровый (Ю.Живов)
Аудио №5: English: 48 kHz, DTS, 3/2 (L,C,R,l,r) + LFE ch, ~1510.00 kbps avg //original
Субтитры: Russian, English (Softsub SRT)
Навигация по главам: есть
Остальные озвучки отдельной раздачей-

Скриншоты

Blu-Ray vs Rip







MediaInfo

L:\movie HD VII\Die Hard [Крепкий орешек]\Die Hard 4.0 - Live Free or Die Hard [Крепкий орешек 4.0] (2007) 1916x800 BDRip RusEngSubsChpt.mkv
General
Unique ID : 211188781957002248062131311174666966109 (0x9EE17ADB5060EB1487B8E0BB5048545D)
Complete name : L:\movie HD VII\Die Hard [Крепкий орешек]\Die Hard 4.0 - Live Free or Die Hard [Крепкий орешек 4.0] (2007) 1916x800 BDRip RusEngSubsChpt.mkv
Format : Matroska
Format version : Version 4 / Version 2
File size : 21.8 GiB
Duration : 2h 8mn
Overall bit rate : 24.2 Mbps
Encoded date : UTC 2013-05-29 14:28:40
Writing application : mkvmerge v6.2.0 ('Promised Land') built on Apr 28 2013 12:22:01
Writing library : libebml v1.3.0 + libmatroska v1.4.0
Video #1
ID : 1
Format : AVC
Format/Info : Advanced Video Codec
Format profile : [email protected]
Format settings, CABAC : Yes
Format settings, ReFrames : 5 frames
Codec ID : V_MPEG4/ISO/AVC
Duration : 2h 8mn
Bit rate : 17.6 Mbps
Width : 1 916 pixels
Height : 800 pixels
Display aspect ratio : 2.40:1
Frame rate mode : Constant
Frame rate : 23.976 fps
Color space : YUV
Chroma subsampling : 4:2:0
Bit depth : 8 bits
Scan type : Progressive
Bits/(Pixel*Frame) : 0.480
Stream size : 15.9 GiB (73%)
Title : 70% of the original
Writing library : x264 core 133 r2334+704+50 a7549b7 tMod [[email protected] X86_64]
Encoding settings : cabac=1 / ref=5 / deblock=1:-3:-3 / analyse=0x3:0x133 / me=umh / subme=11 / psy=1 / fade_compensate=0.00 / psy_rd=1.10:0.07 / mixed_ref=1 / me_range=32 / chroma_me=1 / trellis=2 / 8x8dct=1 / cqm=0 / deadzone=21,11 / fast_pskip=0 / chroma_qp_offset=-3 / threads=12 / lookahead_threads=3 / sliced_threads=0 / nr=0 / decimate=1 / interlaced=0 / bluray_compat=0 / constrained_intra=0 / fgo=0 / bframes=11 / b_pyramid=2 / b_adapt=2 / b_bias=0 / direct=3 / weightb=1 / open_gop=0 / weightp=2 / keyint=240 / keyint_min=23 / scenecut=40 / intra_refresh=0 / rc=crf / mbtree=0 / crf=17.5000 / qcomp=0.60 / qpmin=0 / qpmax=69 / qpstep=4 / ip_ratio=1.40 / pb_ratio=1.30 / aq=3:0.70 / aq-sensitivity=10.00 / aq-factor=1.00:1.00:1.00 / aq2=0 / aq3=0
Language : English
Default : Yes
Forced : No
Color primaries : BT.709
Transfer characteristics : BT.709
Matrix coefficients : BT.709
Audio #2
ID : 2
Format : DTS
Format/Info : Digital Theater Systems
Mode : 16
Format settings, Endianness : Big
Codec ID : A_DTS
Duration : 2h 8mn
Bit rate mode : Constant
Bit rate : 768 Kbps
Channel(s) : 6 channels
Channel positions : Front: L C R, Side: L R, LFE
Sampling rate : 48.0 KHz
Bit depth : 24 bits
Compression mode : Lossy
Stream size : 708 MiB (3%)
Title : Dub DTS 5.1ch 768kbps
Language : Russian
Default : Yes
Forced : No
Audio #3
ID : 3
Format : DTS
Format/Info : Digital Theater Systems
Mode : 16
Format settings, Endianness : Big
Codec ID : A_DTS
Duration : 2h 8mn
Bit rate mode : Constant
Bit rate : 768 Kbps
Channel(s) : 6 channels
Channel positions : Front: L C R, Side: L R, LFE
Sampling rate : 48.0 KHz
Bit depth : 24 bits
Compression mode : Lossy
Stream size : 708 MiB (3%)
Title : MVO DTS 5.1ch 768kbps (Киномания)
Language : Russian
Default : No
Forced : No
Audio #4
ID : 4
Format : DTS
Format/Info : Digital Theater Systems
Mode : 16
Format settings, Endianness : Big
Codec ID : A_DTS
Duration : 2h 8mn
Bit rate mode : Constant
Bit rate : 1 509 Kbps
Channel(s) : 6 channels
Channel positions : Front: L C R, Side: L R, LFE
Sampling rate : 48.0 KHz
Bit depth : 24 bits
Compression mode : Lossy
Stream size : 1.36 GiB (6%)
Title : MVO DTS 5.1ch 1510kbps (А.Гаврилов)
Language : Russian
Default : No
Forced : No
Audio #5
ID : 5
Format : DTS
Format/Info : Digital Theater Systems
Mode : 16
Format settings, Endianness : Big
Codec ID : A_DTS
Duration : 2h 8mn
Bit rate mode : Constant
Bit rate : 1 509 Kbps
Channel(s) : 6 channels
Channel positions : Front: L C R, Side: L R, LFE
Sampling rate : 48.0 KHz
Bit depth : 24 bits
Compression mode : Lossy
Stream size : 1.36 GiB (6%)
Title : MVO DTS 5.1ch 1510kbps (Ю.Живов)
Language : Russian
Default : No
Forced : No
Audio #6
ID : 6
Format : DTS
Format/Info : Digital Theater Systems
Mode : 16
Format settings, Endianness : Big
Codec ID : A_DTS
Duration : 2h 8mn
Bit rate mode : Constant
Bit rate : 1 509 Kbps
Channel(s) : 6 channels
Channel positions : Front: L C R, Side: L R, LFE
Sampling rate : 48.0 KHz
Bit depth : 24 bits
Compression mode : Lossy
Stream size : 1.36 GiB (6%)
Title : Original DTS 5.1ch 1510kbps
Language : English
Default : No
Forced : No
Text #7
ID : 7
Format : UTF-8
Codec ID : S_TEXT/UTF8
Codec ID/Info : UTF-8 Plain Text
Language : Russian
Default : No
Forced : No
Text #8
ID : 8
Format : UTF-8
Codec ID : S_TEXT/UTF8
Codec ID/Info : UTF-8 Plain Text
Language : English
Default : No
Forced : No
Menu
00:00:00.000 : en:Encrypted
00:03:53.149 : en:The Tunnel
00:06:18.544 : en:Problem in Tower Seven
00:07:49.135 : en:A Favor for the Feds
00:11:31.524 : en:Back From the Dead
00:15:16.081 : en:Breach (Main Titles)
00:17:57.493 : en:The Hacker
00:20:47.496 : en:Under Fire
00:25:55.887 : en:Escape
00:27:30.106 : en:A Problem in New Jersey
00:30:02.884 : en:Gabriels Gambit
00:31:27.719 : en:Another Day in Paradise
00:33:47.066 : en:Downloads
00:38:16.294 : en:Accessories to Armageddon
00:41:04.253 : en:The Video Package
00:45:42.865 : en:Stage Two
00:52:16.133 : en:The Tunnel
00:55:26.573 : en:The Eastern Hub
00:58:02.312 : en:Woodlawn
01:00:47.060 : en:The Sales Over
01:02:29.871 : en:Getting the Shaft
01:08:15.508 : en:The Power Grid
01:12:31.263 : en:"Emergency!"
01:17:01.199 : en:Aerial Assault
01:18:28.161 : en:A Little Fresh Air
01:21:30.051 : en:Fire Sale
01:25:52.063 : en:For Being a Hero
01:32:45.101 : en:Blackout
01:36:50.012 : en:Fear of Flying
01:39:47.523 : en:The Warlock
01:45:02.254 : en:Problem in Tower Seven
01:46:22.459 : en:The Killer Acrobat
01:51:21.174 : en:The Substitute Driver
01:56:38.700 : en:Engage and Destroy
01:58:12.543 : en:One Minute
02:01:44.213 : en:Yippee Ki Yay...

x264 log

x264 [info]: frame I:1555 Avg QP:16.24 size:219605 PSNR Mean Y:47.98 U:51.29 V:51.92 Avg:48.87 Global:48.34
x264 [info]: frame P:44100 Avg QP:17.44 size:131129 PSNR Mean Y:46.98 U:50.46 V:51.37 Avg:47.90 Global:47.24
x264 [info]: frame B:139490 Avg QP:19.65 size: 81589 PSNR Mean Y:45.02 U:48.66 V:49.80 Avg:45.97 Global:45.31
x264 [info]: consecutive B-frames: 2.9% 4.6% 15.8% 14.9% 15.5% 38.2% 4.2% 1.1% 0.9% 0.9% 0.7% 0.4%
x264 [info]: mb I I16..4: 16.4% 67.1% 16.6%
x264 [info]: mb P I16..4: 3.9% 46.5% 3.4% P16..4: 14.8% 16.4% 5.0% 0.8% 0.1% skip: 9.2%
x264 [info]: mb B I16..4: 1.0% 14.4% 0.3% B16..8: 32.2% 20.1% 3.8% direct:11.2% skip:16.8% L0:41.9% L1:40.5% BI:17.7%
x264 [info]: 8x8 transform intra:88.1% inter:53.7%
x264 [info]: direct mvs spatial:100.0% temporal:0.0%
x264 [info]: coded y,uvDC,uvAC intra: 91.8% 86.2% 71.5% inter: 54.2% 45.1% 18.1%
x264 [info]: i16 v,h,dc,p: 60% 7% 9% 23%
x264 [info]: i8 v,h,dc,ddl,ddr,vr,hd,vl,hu: 9% 8% 15% 10% 12% 11% 11% 12% 13%
x264 [info]: i4 v,h,dc,ddl,ddr,vr,hd,vl,hu: 10% 9% 11% 9% 13% 12% 12% 10% 13%
x264 [info]: i8c dc,h,v,p: 53% 17% 15% 14%
x264 [info]: Weighted P-Frames: Y:19.4% UV:16.3%
x264 [info]: ref P L0: 45.6% 10.4% 24.1% 10.6% 7.6% 1.6% 0.2%
x264 [info]: ref B L0: 76.7% 16.6% 5.4% 1.3%
x264 [info]: ref B L1: 91.5% 8.5%
x264 [info]: SSIM Mean Y:0.9797364 (16.933db)
x264 [info]: PSNR Mean Y:45.508 U:49.108 V:50.189 Avg:46.452 Global:45.720 kb/s:18135.06
x264 [info]: encoded 185145 frames, 4.413 fps, 18135.06 kb/s, 16694 MB
x264 [info]: ended at Wed May 29 19:20:14 2013
x264 [info]: encoding duration 11:39:13
Доп. информация: За все исходники спасибо
Цитата:

  • Сохранены оригинальные чаптеры как на Blu-ray.

  • Все русские DTS-HD MA получены путем наложения чистого блаблабла на оригинал.

  • За многоголоски и Андрея Гаврилова на 1,2 фильмы в DTS-HD MA спасибо den050687!

  • Отдельная благодарность за помощь в создании релиза Прагматик-у, AndrewPlacid-у, vlaluk-у, sergey_n-у и еще половине клуба!

  • За предоставленный чистый голос Дениса Строева на первую часть спасибо Pr0peLLer-у!

  • Субтитры на 3-ю часть, все что нашел, не понравились, поэтому каждые допиливал. В первых имеется ненормативная лексика.

  • За украинские дорожки спасибо Гуртом! Дороги от 1+1 оставлены в первоначальном виде ибо имеют неплохое качество, особенно для 2-й и 3-й части, вряд ли я бы сделал лучше превратив их в псевдостерео. Отдельное спасибо за украинские субтитры ratbol!

  • За дорожки ОРТ спасибо SnDamil!

  • Дорожка Киномании в 4-й части, в конце фильма уходила в жесткий рассинхрон. Поправил.

  • За время перевода каждого фильма, Юрий Живов скуривал в среднем 4-5 сигарет.
Other forum [Profile] [PM]
Display posts from previous:    
Reply to topic

The time now is: Today 19:49

All times are GMT + 3 Hours



You cannot post new topics in this forum
You cannot reply to topics in this forum
You cannot edit your posts in this forum
You cannot delete your posts in this forum
You cannot vote in polls in this forum
You cannot attach files in this forum
You cannot download files in this forum