Today is a free download without charge Download

Спайдервик: Хроники / The Spiderwick Chronicles (Марк С. Уотерс) [2008 г., фэнтези, приключения, семейный, BDRip720p]

Reply to topic
 
Author
Message

sassad ®

Gender:

Longevity: 8 years 1 month

Posts: 1216

Location: Галич

Торрент-статистика

Post 07-Aug-2011 12:25

[Quote]

Спайдервик: Хроники / The Spiderwick Chronicles--
Год выпуска: 2008
Страна: США
Жанр: фэнтези, приключения, семейный
Продолжительность: 96 мин.
Перевод: Профессиональный (полное дублирование)|Blu-ray CEE|-Режиссер: Марк С. Уотерс
Продюссер: Стив Барнетт, Том С. Пейтцман, Джозетт Перротта
Сценарий: Кэри Киркпатрик, Дэвид Беренбаум, Джон Сейлз
Бюджет: $90 000 000
Премьера в мире: 31 января 2008
6.70 (21 611)--
В ролях: Фредди Хаймор, Мэри-Луиз Паркер, Ник Нолти, Сара Болджер, Эндрю МакКарти, Джоан Плаурайт, Дэвид Стрэтэйрн, Сет Роген, Мартин Шорт, Джорди Бенаттар-Описание: Когда семейство Грейс переезжает в старый дом, стоящий на окраине, начинают твориться странные вещи. Пытаясь понять, в чем дело, Джаред обнаруживает дневник Артура Спайдервика и открывает невероятную правду о поместье: здесь находится скрытая от глаз таинственная страна, населенная фантастическими созданиями! Стремясь защитить свой секрет, Джаред, его сестра и брат-близнец переживают незабываемые приключения.-Качество: BDRip720p
Формат: MKV
Видео кодек: H.264
Аудио кодек: AC3
Видео: 1280x544, 2pass, 2866 Кбит/сек, 23,976 кадр/сек, AVC, x264, 2,35:1, 0.168 Бит/(Пиксели*Кадры)
Аудио: AC-3, 384 Кбит/сек, 6 канала(ов), 48,0 КГц--

MI

General
Complete name : B:Torrents1. РаздачиThe.Spiderwick.Chronicles.2008.[nolimits-team].mkv
Format : Matroska
File size : 2.17 GiB
Duration : 1h 35mn
Overall bit rate : 3 250 Kbps
Movie name : Rip by PunisheR [nolimits-team.ru]
Encoded date : UTC 2011-07-18 00:19:09
Writing application : mkvmerge v3.2.0 ('Beginnings') built on Feb 12 2010 16:46:17
Writing library : libebml v0.7.9 + libmatroska v0.8.1
Video
ID : 2
Format : AVC
Format/Info : Advanced Video Codec
Format profile : [email protected]
Format settings, CABAC : Yes
Format settings, ReFrames : 6 frames
Muxing mode : Container [email protected]
Codec ID : V_MPEG4/ISO/AVC
Duration : 1h 35mn
Bit rate : 2 802 Kbps
Nominal bit rate : 2 866 Kbps
Width : 1 280 pixels
Height : 544 pixels
Display aspect ratio : 2.35:1
Original display aspect ratio : 2.35:1
Frame rate : 23.976 fps
Resolution : 8 bits
Colorimetry : 4:2:0
Scan type : Progressive
Bits/(Pixel*Frame) : 0.168
Stream size : 1.87 GiB (86%)
Title : The.Spiderwick.Chronicles.2008.[nolimits-team.ru]
Writing library : x264 core 115 r2008 4c552d8
Encoding settings : cabac=1 / ref=6 / deblock=1:0:0 / analyse=0x3:0x113 / me=umh / subme=8 / psy=1 / psy_rd=1.00:0.00 / mixed_ref=1 / me_range=16 / chroma_me=1 / trellis=1 / 8x8dct=1 / cqm=0 / deadzone=21,11 / fast_pskip=1 / chroma_qp_offset=-2 / threads=6 / sliced_threads=0 / slices=4 / nr=0 / decimate=1 / interlaced=0 / bluray_compat=1 / constrained_intra=0 / bframes=3 / b_pyramid=0 / b_adapt=1 / b_bias=0 / direct=3 / weightb=1 / open_gop=0 / weightp=1 / keyint=24 / keyint_min=1 / scenecut=40 / intra_refresh=0 / rc_lookahead=24 / rc=2pass / mbtree=1 / bitrate=2866 / ratetol=1.0 / qcomp=0.60 / qpmin=0 / qpmax=69 / qpstep=4 / cplxblur=20.0 / qblur=0.5 / vbv_maxrate=15000 / vbv_bufsize=15000 / nal_hrd=vbr / ip_ratio=1.10 / aq=1:1.00
Language : English
Audio
ID : 1
Format : AC-3
Format/Info : Audio Coding 3
Codec ID : A_AC3
Duration : 1h 35mn
Bit rate mode : Constant
Bit rate : 384 Kbps
Channel(s) : 6 channels
Channel positions : Front: L C R, Surround: L R, LFE
Sampling rate : 48.0 KHz
Stream size : 263 MiB (12%)
Title : Дубляж, Blu-ray CEE
Language : Russian
Text #1
ID : 3
Format : UTF-8
Codec ID : S_TEXT/UTF8
Codec ID/Info : UTF-8 Plain Text
Title : Russian
Language : Russian
-- -- --      --

_________________
Other forum [Profile] [PM]

wasdass

Longevity: 8 years 8 months

Posts: 158

Торрент-статистика

Post 07-Aug-2011 17:05 (after 4 hours)

[Quote]

очень очень очень грустное кино.......


Last edited by wasdass on 2011-08-07 17:05; edited 1 time in total
Other forum [Profile] [PM]
Display posts from previous:    
Reply to topic

The time now is: Today 18:02

All times are GMT + 3 Hours



You cannot post new topics in this forum
You cannot reply to topics in this forum
You cannot edit your posts in this forum
You cannot delete your posts in this forum
You cannot vote in polls in this forum
You cannot attach files in this forum
You cannot download files in this forum