Today is a free download without charge Download

Преступления и проступки / Crimes and Misdemeanors (Вуди Аллен / Woody Allen) [1989, США, драма, мелодрама, комедия, HDTVRip 720p] Dub + 2x MVO + Sub Eng + Original Eng

Reply to topic
 
Author
Message

Omen ®

Longevity: 8 years 5 months

Posts: 181087

Торрент-статистика

Post 29-May-2013 18:14

[Quote]

Преступления и проступки / Crimes and Misdemeanors
Страна: США
Жанр: драма, мелодрама, комедия
Год выпуска: 1989
Продолжительность: 01:39:48
Перевод: Профессиональный (дублированный) Варус-Видео
Перевод: Профессиональный (многоголосый закадровый) НТВ+
Перевод: Профессиональный (многоголосый закадровый)
Cубтитры: английские
Оригинальная аудиодорожка: английский-Режиссер: Вуди Аллен / Woody Allen
В ролях: Билл Бернштейн, Мартин Ландау, Клэр Блум, Стефани Рот Хаберли, Грегг Эделмэн, Джордж Дж. Манос, Анжелика Хьюстон, Вуди Аллен, Дженни Николс, Джоанна Глисон, Алан Алда, Сэм Уотерстон, Миа Фэрроу, Джерри Орбах, Анна Бергер, Мартин С. Бергманн
Описание: Долорес, любовница доктора Розенталя все чаще устраивает ему истерики и грозит шантажом, если он не уйдет от своей жены. Но у доктора налаженный бизнес, дети, теплый семейный очаг, и ему не нужны изменения. Какого черта Долорес решила, что он хочет жениться на ней? Отчаявшись, женщина начинает звонить домой доктору и собирается встретиться с его женой, короче, доставляет кучу хлопот. Лучше бы ее вообще не было. Понимая, что сам он не сможет совершить преступление, Розенталь обращается к брату-уголовнику, недавно отсидевшему срок, чтобы он "помог" ему решить проблему...
IMDb || КиноПоиск-Тип релиза: HDTVRip 720p [CtrlHD]
Контейнер: MKV
Видео: H.264/AVC, 1280x694 at 25.000 fps, ~7500 kbps
Аудио#1: Russian: 48 kHz, AC3, 2/0 (L,R) ch, 192 kbps |Дубляж, Варус-Видео|
Аудио#2: Russian: 48 kHz, AC3, 2/0 (L,R) ch, 192 kbps |Многоголосый закадровый, НТВ+|
Аудио#3: Russian: 48 kHz, AC3, 2/0 (L,R) ch, 192 kbps |Многоголосый закадровый|
Аудио#4: English: 48 kHz, AC3, 2/0 (L,R) ch, 384 kbps
Формат субтитров: softsub (SRT)
Сэмпл

MediaInfo

Format : Matroska
Format version : Version 2
File size : 5.90 GiB
Duration : 1h 39mn
Overall bit rate : 8 459 Kbps
Encoded date : UTC 2013-05-22 05:10:05
Writing application : mkvmerge v5.0.1 ('Es ist Sommer') built on Nov 6 2011 16:23:40
Writing library : libebml v1.2.2 + libmatroska v1.3.0
Video
ID : 1
Format : AVC
Format/Info : Advanced Video Codec
Format profile : [email protected]
Format settings, CABAC : Yes
Format settings, ReFrames : 9 frames
Codec ID : V_MPEG4/ISO/AVC
Duration : 1h 39mn
Bit rate : 7 500 Kbps
Width : 1 280 pixels
Height : 694 pixels
Display aspect ratio : 16:9
Frame rate : 25.000 fps
Color space : YUV
Chroma subsampling : 4:2:0
Bit depth : 8 bits
Scan type : Progressive
Bits/(Pixel*Frame) : 0.338
Stream size : 5.11 GiB (87%)
Writing library : x264 core 130 r2273 b3065e6
Encoding settings : cabac=1 / ref=9 / deblock=1:-3:-3 / analyse=0x3:0x113 / me=umh / subme=10 / psy=1 / psy_rd=1.05:0.00 / mixed_ref=1 / me_range=24 / chroma_me=1 / trellis=2 / 8x8dct=1 / cqm=0 / deadzone=21,11 / fast_pskip=0 / chroma_qp_offset=-2 / threads=12 / lookahead_threads=2 / sliced_threads=0 / nr=0 / decimate=0 / interlaced=0 / bluray_compat=0 / constrained_intra=0 / bframes=8 / b_pyramid=2 / b_adapt=2 / b_bias=0 / direct=3 / weightb=1 / open_gop=0 / weightp=2 / keyint=250 / keyint_min=25 / scenecut=40 / intra_refresh=0 / rc=2pass / mbtree=0 / bitrate=7500 / ratetol=1.0 / qcomp=0.60 / qpmin=0 / qpmax=69 / qpstep=4 / cplxblur=20.0 / qblur=0.5 / ip_ratio=1.30 / pb_ratio=1.20 / aq=1:0.75
Language : English
Default : Yes
Forced : No
Audio #1
ID : 2
Format : AC-3
Format/Info : Audio Coding 3
Mode extension : CM (complete main)
Codec ID : A_AC3
Duration : 1h 39mn
Bit rate mode : Constant
Bit rate : 192 Kbps
Channel(s) : 2 channels
Channel positions : Front: L R
Sampling rate : 48.0 KHz
Bit depth : 16 bits
Compression mode : Lossy
Stream size : 137 MiB (2%)
Title : Dub
Language : Russian
Default : Yes
Forced : No
Audio #2
ID : 3
Format : AC-3
Format/Info : Audio Coding 3
Mode extension : CM (complete main)
Codec ID : A_AC3
Duration : 1h 39mn
Bit rate mode : Constant
Bit rate : 192 Kbps
Channel(s) : 2 channels
Channel positions : Front: L R
Sampling rate : 48.0 KHz
Bit depth : 16 bits
Compression mode : Lossy
Stream size : 137 MiB (2%)
Title : mvo |нтв+|
Language : Russian
Default : No
Forced : No
Audio #3
ID : 4
Format : AC-3
Format/Info : Audio Coding 3
Mode extension : CM (complete main)
Codec ID : A_AC3
Duration : 1h 39mn
Bit rate mode : Constant
Bit rate : 192 Kbps
Channel(s) : 2 channels
Channel positions : Front: L R
Sampling rate : 48.0 KHz
Bit depth : 16 bits
Compression mode : Lossy
Stream size : 137 MiB (2%)
Language : Russian
Default : No
Forced : No
Audio #4
ID : 5
Format : AC-3
Format/Info : Audio Coding 3
Format profile : Dolby Digital
Mode extension : CM (complete main)
Codec ID : A_AC3
Duration : 1h 39mn
Bit rate mode : Constant
Bit rate : 384 Kbps
Channel(s) : 2 channels
Channel positions : Front: L R
Sampling rate : 48.0 KHz
Bit depth : 16 bits
Compression mode : Lossy
Stream size : 274 MiB (5%)
Language : English
Default : No
Forced : No
Text
ID : 6
Format : UTF-8
Codec ID : S_TEXT/UTF8
Codec ID/Info : UTF-8 Plain Text
Language : English
Default : No
Forced : No

Скриншоты

CtrlHD vs Source
Other forum [Profile] [PM]
Similar theme
Forum Topic Author Torrent Replies Last Post
./templates/default/images/folder_dl.gif Зарубежные сериалы Игра престолов / Game of Thrones / Сезон: 8 / Серии: 1-6 из 6 (Алан Тейлор / Alan Taylor) [2019, фэнтези, боевик, драма, мелодрама, приключения, WEB-DL 1080p] MVO (Amedia / Новамедиа) + Original + Sub (Rus, Eng) ¶ }{@R0N
1 | 0

0 | 2513

0

2019-05-20 12:02
}{@R0N Latest
Display posts from previous:    
Reply to topic

The time now is: Today 00:48

All times are GMT + 3 Hours



You cannot post new topics in this forum
You cannot reply to topics in this forum
You cannot edit your posts in this forum
You cannot delete your posts in this forum
You cannot vote in polls in this forum
You cannot attach files in this forum
You cannot download files in this forum