Today is a free download without charge Download

Уличный боец / Street Fighter (Стивен Е. де Соуза) [1994, фантастика, боевик, комедия, приключенияслова, BDRip 1080p]

Reply to topic
 
Author
Message

Delia ®

Gender:

Longevity: 10 years

Posts: 1821

Торрент-статистика

Post 29-May-2013 08:19

[Quote]

-Уличный боец
Street Fighter«The fight to save the world is on!»--
Год выпуска: 1994
Страна: США , Япония
Жанр: фантастика, боевик, комедия, приключения
Продолжительность: 01:42:10
Перевод: Профессиональный (дублированный)
Субтитры: Russian (UTF-8), English (UTF-8)
Режиссер: Стивен Е. де Соуза
Сценарий: Стивен Е. де Соуза
Продюсер: Джан Айда, Джери Баркилон, Саша Харари, ...
Оператор: Уильям А. Фрейкер
Композитор: Грэм Ревелл, Жорж Бизе
Художник: Уильям Дж. Кребер, Лэк Чхайянь Чхун-суттиват, Йен Грейси, ...
Монтаж: Эдвард М. Абромс, Донн Арон, Дов Хениг, ...-
В ролях: Жан-Клод Ван Дамм / Jean-Claude Van Damme (Colonel William F. Guile, $ 8 000 000 ), Рауль Хулиа / Raul Julia (General M. Bison), Минг-На / Ming-Na (Chun-Li Zang), Дэмиан Чапа / Damian Chapa (Ken Masters), Кайли Миноуг / Kylie Minogue (Lieutenant Cammy), Саймон Кэллоу / Simon Callow (A.N. Official), Рошан Сет / Roshan Seth (Dr. Dhalsim), Уэс Стьюди / Wes Studi (Victor Sagat), Байрон Манн / Byron Mann (Ryu Hoshi), Гранд Л. Буш / Grand L. Bush (Balrog)-Описание: Сумасшедший диктатор — злобный и довольно настырный психопат захватывает в заложники ни в чем не повинных людей, требуя выкуп в миллионы долларов. Единственный, кому по силам справиться с ним — бесстрашный полковник Уильям Гайл, на долю которого выпадает опасная миссия — разыскать тайный штаб неудавшегося Властителя мира и победить его.На помощь отважному бойцу приходят лишь несколько друзей — они не похожи друг на друга, но их объединяет одно — они верят в себя и готовы идти до конца.-- Бюджет: $35 000 000
Сборы в США: $33 423 521
Сборы в мире: + $66 000 000 = $99 423 521
Зрители: Германия 821.1 тыс.
Премьера (мир): 23 декабря 1994, ...-
Рейтинг MPAA: Детям до 13 лет просмотр не желателен
Рейтинг ВКИП: для детей старше 12 лет-
Качество: BDRip
Формат: MKV
Видео кодек: H.264 (AVC)
Аудио кодеk: AC3
Видео: 1920x800 (2.40:1), 23.976 fps, AVC, 9 743 Kbps
Аудио:
Аудио #1: AC3, 192 Kbps, 48.0 KHz, 2 ch RUS Dub
Аудио #2: AC3, 448 Kbps, 48.0 KHz, 6 ch RUS MVO HTB
Аудио #3: AC3, 192 Kbps, 48.0 KHz, 2 ch RUS MVO
Аудио #4: AC3, 192 Kbps, 48.0 KHz, 2 ch RUS AVO А.Гаврилов
Аудио #5: AC3, 448 Kbps, 48.0 KHz, 6 ch ENG


--

МедиаИнфо

Код:
x264 [info]: frame I:1178 Avg QP:18.28 size:167157
x264 [info]: frame P:33942 Avg QP:20.64 size: 81633
x264 [info]: frame B:110848 Avg QP:22.68 size: 40061
General
Unique ID                                : 227147219358156958534258735450460167856 (0xAAE2F6914D0D37FE87C1AB0908D29EB0)
Complete name                            : Street Fighter (1994)1080p.F_HD.mkv
Format                                   : Matroska
Format version                           : Version 4 / Version 2
File size                                : 7.95 GiB
Duration                                 : 1h 42mn
Overall bit rate                         : 11.1 Mbps
Encoded date                             : UTC 2013-05-29 04:18:17
Writing application                      : mkvmerge v6.2.0 ('Promised Land') built on Apr 28 2013 12:22:01
Writing library                          : libebml v1.3.0 + libmatroska v1.4.0
Video
ID                                       : 1
Format                                   : AVC
Format/Info                              : Advanced Video Codec
Format profile                           : [email protected]
Format settings, CABAC                   : Yes
Format settings, ReFrames                : 5 frames
Codec ID                                 : V_MPEG4/ISO/AVC
Duration                                 : 1h 42mn
Bit rate                                 : 9 743 Kbps
Width                                    : 1 920 pixels
Height                                   : 800 pixels
Display aspect ratio                     : 2.40:1
Frame rate mode                          : Constant
Frame rate                               : 23.976 fps
Color space                              : YUV
Chroma subsampling                       : 4:2:0
Bit depth                                : 8 bits
Scan type                                : Progressive
Bits/(Pixel*Frame)                       : 0.265
Stream size                              : 6.74 GiB (85%)
Writing library                          : x264 core 133 r2334 a3ac64b
Encoding settings                        : cabac=1 / ref=5 / deblock=1:-3:-3 / analyse=0x3:0x113 / me=umh / subme=10 / psy=1 / psy_rd=0.90:0.05 / mixed_ref=1 / me_range=48 / chroma_me=1 / trellis=2 / 8x8dct=1 / cqm=0 / deadzone=21,11 / fast_pskip=0 / chroma_qp_offset=-3 / threads=6 / lookahead_threads=1 / sliced_threads=0 / nr=0 / decimate=1 / interlaced=0 / bluray_compat=0 / constrained_intra=0 / bframes=9 / b_pyramid=2 / b_adapt=2 / b_bias=0 / direct=3 / weightb=1 / open_gop=0 / weightp=2 / keyint=240 / keyint_min=23 / scenecut=40 / intra_refresh=0 / rc_lookahead=60 / rc=2pass / mbtree=0 / bitrate=9743 / ratetol=1.0 / qcomp=0.70 / qpmin=0 / qpmax=69 / qpstep=4 / cplxblur=20.0 / qblur=0.5 / vbv_maxrate=50000 / vbv_bufsize=62500 / nal_hrd=none / ip_ratio=1.40 / pb_ratio=1.30 / aq=1:0.80
Language                                 : English
Default                                  : Yes
Forced                                   : No
Color primaries                          : BT.709
Transfer characteristics                 : BT.709
Matrix coefficients                      : BT.709
Audio #1
ID                                       : 2
Format                                   : AC-3
Format/Info                              : Audio Coding 3
Mode extension                           : CM (complete main)
Format settings, Endianness              : Big
Codec ID                                 : A_AC3
Duration                                 : 1h 42mn
Bit rate mode                            : Constant
Bit rate                                 : 192 Kbps
Channel(s)                               : 2 channels
Channel positions                        : Front: L R
Sampling rate                            : 48.0 KHz
Bit depth                                : 16 bits
Compression mode                         : Lossy
Stream size                              : 140 MiB (2%)
Title                                    : Дубляж
Language                                 : Russian
Default                                  : Yes
Forced                                   : No
Audio #2
ID                                       : 3
Format                                   : AC-3
Format/Info                              : Audio Coding 3
Mode extension                           : CM (complete main)
Format settings, Endianness              : Big
Codec ID                                 : A_AC3
Duration                                 : 1h 42mn
Bit rate mode                            : Constant
Bit rate                                 : 448 Kbps
Channel(s)                               : 6 channels
Channel positions                        : Front: L C R, Side: L R, LFE
Sampling rate                            : 48.0 KHz
Bit depth                                : 16 bits
Compression mode                         : Lossy
Stream size                              : 327 MiB (4%)
Title                                    : MVO НТВ
Language                                 : Russian
Default                                  : No
Forced                                   : No
Audio #3
ID                                       : 4
Format                                   : AC-3
Format/Info                              : Audio Coding 3
Mode extension                           : CM (complete main)
Format settings, Endianness              : Big
Codec ID                                 : A_AC3
Duration                                 : 1h 42mn
Bit rate mode                            : Constant
Bit rate                                 : 192 Kbps
Channel(s)                               : 2 channels
Channel positions                        : Front: L R
Sampling rate                            : 48.0 KHz
Bit depth                                : 16 bits
Compression mode                         : Lossy
Stream size                              : 140 MiB (2%)
Title                                    : MVO
Language                                 : Russian
Default                                  : No
Forced                                   : No
Audio #4
ID                                       : 5
Format                                   : AC-3
Format/Info                              : Audio Coding 3
Mode extension                           : CM (complete main)
Format settings, Endianness              : Big
Codec ID                                 : A_AC3
Duration                                 : 1h 42mn
Bit rate mode                            : Constant
Bit rate                                 : 192 Kbps
Channel(s)                               : 2 channels
Channel positions                        : Front: L R
Sampling rate                            : 48.0 KHz
Bit depth                                : 16 bits
Compression mode                         : Lossy
Stream size                              : 140 MiB (2%)
Title                                    : VO А.Гаврилов
Language                                 : Russian
Default                                  : No
Forced                                   : No
Audio #5
ID                                       : 6
Format                                   : AC-3
Format/Info                              : Audio Coding 3
Mode extension                           : CM (complete main)
Format settings, Endianness              : Big
Codec ID                                 : A_AC3
Duration                                 : 1h 42mn
Bit rate mode                            : Constant
Bit rate                                 : 448 Kbps
Channel(s)                               : 6 channels
Channel positions                        : Front: L C R, Side: L R, LFE
Sampling rate                            : 48.0 KHz
Bit depth                                : 16 bits
Compression mode                         : Lossy
Stream size                              : 327 MiB (4%)
Language                                 : English
Default                                  : No
Forced                                   : No
Text #1
ID                                       : 7
Format                                   : UTF-8
Codec ID                                 : S_TEXT/UTF8
Codec ID/Info                            : UTF-8 Plain Text
Language                                 : Russian
Default                                  : No
Forced                                   : No
Text #2
ID                                       : 8
Format                                   : UTF-8
Codec ID                                 : S_TEXT/UTF8
Codec ID/Info                            : UTF-8 Plain Text
Language                                 : English
Default                                  : No
Forced                                   : No
Menu
00:00:00.000                             : en:00:00:00.000
00:06:41.067                             : en:00:06:41.067
00:11:12.421                             : en:00:11:12.421
00:19:03.267                             : en:00:19:03.267
00:26:02.060                             : en:00:26:02.060
00:31:16.541                             : en:00:31:16.541
00:39:16.896                             : en:00:39:16.896
00:44:24.411                             : en:00:44:24.411
00:51:05.312                             : en:00:51:05.312
00:55:21.192                             : en:00:55:21.192
01:02:33.624                             : en:01:02:33.624
01:07:45.478                             : en:01:07:45.478
01:14:50.986                             : en:01:14:50.986
01:19:26.803                             : en:01:19:26.803
01:28:12.203                             : en:01:28:12.203
01:32:46.227                             : en:01:32:46.227

Знаете ли Вы, что...

★ Фильм снят по мотивам компьютерной игры «Street Fighter II» (1991, Capcom).
★ Ради этого фильма Жан-Клод Ван Дамм отказался от предложения сняться в Смертельной битве в роли Джонни Кейджа.
★ В отличие от фильма, в игре Байсон носит звание лишь майора.

Скриншоты

       
       

_________________
Человек – это канат, натянутый между животным и сверхчеловеком, – канат над пропастью.
В человеке ценно то, что он мост, а не цель. Фридрих Ницше
Other forum [Profile] [PM]
Display posts from previous:    
Reply to topic

The time now is: Today 06:48

All times are GMT + 3 Hours



You cannot post new topics in this forum
You cannot reply to topics in this forum
You cannot edit your posts in this forum
You cannot delete your posts in this forum
You cannot vote in polls in this forum
You cannot attach files in this forum
You cannot download files in this forum