Today is a free download without charge Download

A La Carte - 2 Альбома (1980,1981) [FLAC 2.0 24/192|image (Vinyl-Rip)]

Reply to topic
 
Author
Message

UndegraundMen ®

Longevity: 7 years 11 months

Posts: 25145

Торрент-статистика

Post 29-May-2013 00:01

[Quote]

A La Carte - 2 Альбома (1980,1981)- Год: 1980,1981
Жанр: Disco
Продолжительность: 01:13:08
Кодек: FLAC 2.0
Битрейт: 24/192
Тип рипа: image-A La Carte - немецкая диско-группа, образованная в 1978 году супружеской парой Тони Хендрик и Карин Хартман, работавшими продюсерами в корпорации Hansa International.
Состав трио менялся с завидным постоянством, в результате за время существования коллектива в нем успело поучавствовать шесть исполнительниц.
Примечательно, что аранжировки песен в представленых альбомах сделаны Майклом Крету (Michael Cretu), плюс он даже поиграл на клавишных, а на бас гитаре - Manfred "Thiessy" Thiers.
-

1980 - Do Wah Diddy Diddy Round:

Лейбл: Hansa
Код класса состояния винила: VG
Автор оцифровки: bazar
Трек лист:
01. Do Wah Diddy Diddy Round
02. Jimmy Gimme Reggae
03. I Don't Want No Plastic Lover
04. Doctor, Doctor (Help Me Please)
05. When The Boys Come Home
06. Red Indian Drums
07. It Was A Night Of Wonder
08. Price Of Love
09. Farewell, Farewell To Carlingford
Продолжительность: 00:36:13

Technical info:

Устройство воспроизведения: Technics SL-1200MK5
Предварительный усилитель: PS audio GCPH Mod1
АЦП: LynxTwo
Программа-оцифровщик: LynxTwo

MediaInfo:

Код:
Общее
Полное имя                               : D:\TORRENT_NEW\A La Carte (LPs) [NNM-Club]\1980 - Do Wah Diddy Diddy Round\A La Carte - Do Wah Diddy Diddy Round.flac
Формат                                   : FLAC
Формат/Информация                        : Free Lossless Audio Codec
Размер файла                             : 1,43 Гбайт
Продолжительность                        : 36 м.
Режим общего битрейта                    : Переменный
Общий поток                              : 5646 Кбит/сек
Альбом                                   : Do Wah Diddy Diddy Round
Трек/Всего                               : 9
Исполнитель                              : A La Carte
Жанр                                     : Disco
Дата записи                              : 1980
cuesheet                                 : REM GENRE Disco / REM DATE 1980 / PERFORMER "A La Carte" / TITLE "Do Wah Diddy Diddy Round" / FILE "CDImage.wav" WAVE /   TRACK 01 AUDIO /     TITLE "Do Wah Diddy Diddy Round" /     INDEX 01 00:00:00 /   TRACK 02 AUDIO /     TITLE "Jimmy Gimme Reggae" /     INDEX 01 03:38:00 /   TRACK 03 AUDIO /     TITLE "I Don't Want No Plastic Lover" /     INDEX 01 06:42:30 /   TRACK 04 AUDIO /     TITLE "Doctor, Doctor (Help Me Please)" /     INDEX 01 10:19:00 /   TRACK 05 AUDIO /     TITLE "When The Boys Come Home" /     INDEX 01 16:00:00 /   TRACK 06 AUDIO /     TITLE "Red Indian Drums" /     INDEX 01 20:08:30 /   TRACK 07 AUDIO /     TITLE "It Was A Night Of Wonder" /     INDEX 01 24:11:00 /   TRACK 08 AUDIO /     TITLE "Price Of Love" /     INDEX 01 28:31:00 /   TRACK 09 AUDIO /     TITLE "Farewell, Farewell To Carlingford" /     INDEX 01 32:32:00
Аудио
Формат                                   : FLAC
Формат/Информация                        : Free Lossless Audio Codec
Продолжительность                        : 36 м.
Вид битрейта                             : Переменный
Битрейт                                  : 5646 Кбит/сек
Каналы                                   : 2 канала
Частота                                  : 192 КГц
Битовая глубина                          : 24 бит
Размер потока                            : 1,43 Гбайт (100%)
Библиотека кодирования                   : libFLAC 1.2.1 (UTC 2007-09-17)

Спектр, Уровень, АЧХ:

 

Dynamic Range Meter:

Код:
foobar2000 1.1.11 / Dynamic Range Meter 1.1.1
log date: 2013-05-27 12:16:03
--------------------------------------------------------------------------------
Analyzed: A La Carte / Do Wah Diddy Diddy Round
--------------------------------------------------------------------------------
DR         Peak         RMS     Duration Track
--------------------------------------------------------------------------------
DR12      -0.69 dB   -13.72 dB      3:38 01-Do Wah Diddy Diddy Round
DR12      -1.86 dB   -15.88 dB      3:04 02-Jimmy Gimme Reggae
DR13      -1.05 dB   -16.77 dB      3:37 03-I Don't Want No Plastic Lover
DR13      -0.61 dB   -15.60 dB      5:41 04-Doctor, Doctor (Help Me Please)
DR13      -0.70 dB   -15.71 dB      4:08 05-When The Boys Come Home
DR12      -0.68 dB   -15.23 dB      4:03 06-Red Indian Drums
DR12      -0.25 dB   -14.76 dB      4:20 07-It Was A Night Of Wonder
DR12      -1.41 dB   -16.93 dB      4:01 08-Price Of Love
DR11      -1.06 dB   -13.86 dB      3:41 09-Farewell, Farewell To Carlingford
--------------------------------------------------------------------------------
Number of tracks:  9
Official DR value: DR12
Samplerate:        192000 Hz
Channels:          2
Bits per sample:   24
Bitrate:           5646 kbps
Codec:             FLAC
================================================================================

1981 - Viva:

Лейбл: Coconut
Код класса состояния винила: VG+
Автор оцифровки: Gygazoid
Трек лист:
01. Viva Torero
02. Morning Songbird
03. Cubatao
04. In The Summer Sun Of Greece
05. Try A Little Tenderness
06. Wanted (Jean Le Voleur)
07. You Get Me On The Run
08. Have You Forgotten (Wolga Song)
09. River Blue
10. Dong Dong Diki Diki Dong
Продолжительность: 00:36:54

Technical info:

Устройство воспроизведения: Marantz TT 221, CT Denon DL-160
Предварительный усилитель: Built-In Marantz PM 750 DC
АЦП: E-MU Tracker Pre
Программа-оцифровщик: WaveLab6

MediaInfo:

Код:
Общее
Полное имя                               : D:\TORRENT_NEW\A La Carte (LPs) [NNM-Club]\1981 - Viva\Side 1.flac
Формат                                   : FLAC
Формат/Информация                        : Free Lossless Audio Codec
Размер файла                             : 726 Мбайт
Продолжительность                        : 18 м.
Режим общего битрейта                    : Переменный
Общий поток                              : 5442 Кбит/сек
Аудио
Формат                                   : FLAC
Формат/Информация                        : Free Lossless Audio Codec
Продолжительность                        : 18 м.
Вид битрейта                             : Переменный
Битрейт                                  : 5442 Кбит/сек
Каналы                                   : 2 канала
Частота                                  : 192 КГц
Битовая глубина                          : 24 бит
Размер потока                            : 726 Мбайт (100%)
Библиотека кодирования                   : libFLAC 1.2.1 (UTC 2007-09-17)
Общее
Полное имя                               : D:\TORRENT_NEW\A La Carte (LPs) [NNM-Club]\1981 - Viva\Side 2.flac
Формат                                   : FLAC
Формат/Информация                        : Free Lossless Audio Codec
Размер файла                             : 708 Мбайт
Продолжительность                        : 18 м.
Режим общего битрейта                    : Переменный
Общий поток                              : 5411 Кбит/сек
Аудио
Формат                                   : FLAC
Формат/Информация                        : Free Lossless Audio Codec
Продолжительность                        : 18 м.
Вид битрейта                             : Переменный
Битрейт                                  : 5411 Кбит/сек
Каналы                                   : 2 канала
Частота                                  : 192 КГц
Битовая глубина                          : 24 бит
Размер потока                            : 708 Мбайт (100%)
Библиотека кодирования                   : libFLAC 1.2.1 (UTC 2007-09-17)

Спектр, Уровень, АЧХ:

     

Dynamic Range Meter:

Код:
foobar2000 1.1.11 / Dynamic Range Meter 1.1.1
log date: 2013-05-28 10:31:02
--------------------------------------------------------------------------------
Analyzed: A La Carte / Viva
--------------------------------------------------------------------------------
DR         Peak         RMS     Duration Track
--------------------------------------------------------------------------------
DR13      -1.67 dB   -15.80 dB      3:59 01-Viva Torero
DR13      -0.68 dB   -16.88 dB      3:44 02-Morning Songbird
DR13      -1.83 dB   -16.16 dB      3:50 03-Cubatao
DR14      -2.02 dB   -17.09 dB      3:52 04-In The Summer Sun Of Greece
DR11      -3.52 dB   -15.27 dB      3:13 05-Try A Little Tenderness
DR11      -2.86 dB   -16.03 dB      3:50 06-Wanted (Jean Le Voleur)
DR12      -2.36 dB   -15.85 dB      3:24 07-You Get Me On The Run
DR11      -2.03 dB   -14.86 dB      3:33 08-Have You Forgotten (Wolga Song)
DR11      -3.23 dB   -15.73 dB      4:33 09-River Blue
DR11      -1.91 dB   -15.53 dB      2:57 10-Dong Dong Diki Diki Dong
--------------------------------------------------------------------------------
Number of tracks:  10
Official DR value: DR12
Samplerate:        192000 Hz
Channels:          2
Bits per sample:   24
Bitrate:           5411 kbps
Codec:             FLAC
================================================================================
Время раздачи: С 11:30 до 18:00 и с 20:00 до 08:00 Мск., до 5-ти сидирующих
Other forum [Profile] [PM]

Dracula

Longevity: 7 years 2 months

Posts: 11312

Торрент-статистика

Post 29-May-2013 08:16 (after 8 hours)

Топик был перенесен из форума Учебная и научно-популярная литература в форум Vinyl-Rip и Hand-Made


RUGUI
 
Display posts from previous:    
Reply to topic

The time now is: Today 21:35

All times are GMT + 3 Hours



You cannot post new topics in this forum
You cannot reply to topics in this forum
You cannot edit your posts in this forum
You cannot delete your posts in this forum
You cannot vote in polls in this forum
You cannot attach files in this forum
You cannot download files in this forum