Today is a free download without charge Download

Rocky M - The Best Of Rocky M (1989) [ FLAC 2.0 24/96|image(Vinyl-Rip)]

Reply to topic
 
Author
Message

UndegraundMen ®

Longevity: 7 years 11 months

Posts: 25145

Торрент-статистика

Post 29-May-2013 00:01

[Quote]

Rocky M - The Best Of Rocky M (1989)- Год издания: 1989
Жанр: Disco, Synth-pop
Продолжительность: 00:42:13
Издатель (лейбл): Titan ‎– Titan 2132-1, Germany
Источник оцифровки: egr1973
Кодек: FLAC 2.0 24/96
Тип рипа: image+.cue-Трек лист: -Side 1
A1. Burning Heart 3:11
A2. Disco Lady 3:23
A3. An Angel Passed My Way 4:08
A4. Fever 3:18
A5. Fail With Another Boy 3:37
A6. Hot Love 3:31
Side 2
B1. Rockys Dance Machine 5:50
B2. Fly With Me To Wonderland 3:53
B3. Can't Get Enough 3:22
B4. Satisfaction 3:16
B5. You Can't Hold A Dream 4:31-

Доп. информация:

Companies etc:
Phonographic Copyright (p) – TITAN Schallplatten
Copyright (c) – TITAN Schallplatten
Notes:
(C)+(P) 1989
Best.-Nr. LP 2132-1
Titan Schallplatten . Südweg 12 . 5206 Neunkirchen 1
Other Identifiers:
Label Code: LC 8128
Rights Society: GEMA
Matrix / Runout (Side A): DMD-1013 A - 1/10-89
Matrix / Runout (Side B): DMD-1013 B - 1/10-89

Technical info:

Формат записи: 24/96
Формат раздачи: 24/96
Код класса состояния винила: EX
Устройство воспроизведения: Technics SL-1900
Головка звукоснимателя: Pioneer PC-11
Предварительный усилитель: Pioneer SA-8800 II
АЦП: Audiotrak Prodigy 7.1 Hi-Fi
Программа-оцифровщик: Adobe Audition CS 5.5
Обработка: Удалены крупные щелчки

MediaInfo:

Код:
Общее
Полное имя                               : D:\Downloads\Раздача 2\Rocky M - The Best Of Rocky M (1989)(LP) (24-96)\A-Rocky M - The Best Of Rocky M.flac
Формат                                   : FLAC
Формат/Информация                        : Free Lossless Audio Codec
Размер файла                             : 477 Мбайт
Продолжительность                        : 21 м.
Режим общего битрейта                    : Переменный
Общий поток                              : 3099 Кбит/сек
Альбом                                   : The Best Of Rocky M
Альбом/Исполнитель                       : Rocky M
Продюсер                                 : Titan ?– Titan 2132-1,   Germany
Жанр                                     : Synth-Pop, Disco
Дата записи                              : 1989
Обложка                                  : Yes
Тип обложки                              : Cover (front)
MIME-тип обложки                         : image/jpeg
Примечание                               : Phonographic Copyright (P) – Titan Schallplatten / Copyright (C) – Titan Schallplatten / (C)+(P) 1989 / Best.-Nr. Lp 2132-1  / Titan Schallplatten . Sudweg 12 . 5206 Neunkirchen 1 / Label Code: Lc 8128 / Rights Society: Gema / Matrix / Runout (Side A): Dmd-1013 A - 1/10-89 / Matrix / Runout (Side B): Dmd-1013 B - 1/10-89
ENCODED BY                               : OrlSoft Music Manager 4.3.3.2608
Аудио
Формат                                   : FLAC
Формат/Информация                        : Free Lossless Audio Codec
Продолжительность                        : 21 м.
Вид битрейта                             : Переменный
Битрейт                                  : 3098 Кбит/сек
Каналы                                   : 2 канала
Частота                                  : 96,0 КГц
Битовая глубина                          : 24 бит
Размер потока                            : 477 Мбайт (100%)
Библиотека кодирования                   : libFLAC 1.2.1 (UTC 2007-09-17)
Общее
Полное имя                               : D:\Downloads\Раздача 2\Rocky M - The Best Of Rocky M (1989)(LP) (24-96)\B-Rocky M - The Best Of Rocky M.flac
Формат                                   : FLAC
Формат/Информация                        : Free Lossless Audio Codec
Размер файла                             : 457 Мбайт
Продолжительность                        : 20 м.
Режим общего битрейта                    : Переменный
Общий поток                              : 3088 Кбит/сек
Альбом                                   : The Best Of Rocky M
Альбом/Исполнитель                       : Rocky M
Продюсер                                 : Titan ?– Titan 2132-1,   Germany
Жанр                                     : Synth-Pop, Disco
Дата записи                              : 1989
Обложка                                  : Yes
Тип обложки                              : Cover (front)
MIME-тип обложки                         : image/jpeg
Примечание                               : Phonographic Copyright (P) – Titan Schallplatten / Copyright (C) – Titan Schallplatten / (C)+(P) 1989 / Best.-Nr. Lp 2132-1  / Titan Schallplatten . Sudweg 12 . 5206 Neunkirchen 1 / Label Code: Lc 8128 / Rights Society: Gema / Matrix / Runout (Side A): Dmd-1013 A - 1/10-89 / Matrix / Runout (Side B): Dmd-1013 B - 1/10-89
ENCODED BY                               : OrlSoft Music Manager 4.3.3.2608
Аудио
Формат                                   : FLAC
Формат/Информация                        : Free Lossless Audio Codec
Продолжительность                        : 20 м.
Вид битрейта                             : Переменный
Битрейт                                  : 3087 Кбит/сек
Каналы                                   : 2 канала
Частота                                  : 96,0 КГц
Битовая глубина                          : 24 бит
Размер потока                            : 457 Мбайт (100%)
Библиотека кодирования                   : libFLAC 1.2.1 (UTC 2007-09-17)

Спектр, Уровень, АЧХ:

   
-Время раздачи: c 8:30 до 24:00 иногда: 24/7
Other forum [Profile] [PM]

Dracula

Longevity: 7 years 3 months

Posts: 11206

Торрент-статистика

Post 29-May-2013 08:53 (after 8 hours)

Топик был перенесен из форума Классика зарубежного кино в форум Vinyl-Rip и Hand-Made


RUGUI
 
Display posts from previous:    
Reply to topic

The time now is: Today 06:13

All times are GMT + 3 Hours



You cannot post new topics in this forum
You cannot reply to topics in this forum
You cannot edit your posts in this forum
You cannot delete your posts in this forum
You cannot vote in polls in this forum
You cannot attach files in this forum
You cannot download files in this forum