Today is a free download without charge Download

The Beatles - Rock\'n\'Roll Music, Vol.1-2 (1980) [FLAC|2.0 24/96|tracks (Vinyl-Rip)

Reply to topic
 
Author
Message

UndegraundMen ®

Longevity: 7 years 11 months

Posts: 25145

Торрент-статистика

Post 29-May-2013 00:01

[Quote]

The Beatles - Rock'n'Roll Music, Vol.1 - 2 (1980)- Год: 1980
Страна-производитель диска: Великобритания
Издатель (лейбл): Music for Pleasure
Номер по каталогу: MFP 50506
Жанр: Rock, Rock-n-roll
Продолжительность: 01:14:51
Наличие сканов в архиве: да
Автор оцифровки: stepniks-Кодек: FLAC 2.0
Битрейт: 24bit/96kHz-Эта британская версия в отличие от американской 1976 года состоит из ремикшированных лично Джорджом Мартином версий песен. Дело в том, что когда глава фирмы Capitol, издающей The Beatles в Америке - обратился к Мартину, чтобы тот дал добро на выпуск альбома на базе пленок, какие у них имелись, Джордж, прослушав эти пленки, пришел в ужас. Это были старинные двухдорожечные монопленки, и с них собирались делать для альбома стереомикс. Вместо того, чтобы одобрить альбом в таком виде, Мартин сел за работу, отфильтровал и смикшировал каждую песню, но они в то время не пошли в ход при выпуске альбома, так как существовали строгие инструкции Битлов переиздавать только оригинальные записи.-Vol.1
Продолжительность: 00:34:37
Трек лист:
01. Twist and Shout (Medley-Russell)
from the LP "Please, Please Me" released 1963
02. I Saw Her Standing There (Lennon-McCartney)
from the LP "Please, Please Me" released 1963
03. You Can't Do That (Lennon-McCartney)
from the LP "A Hard Days Night" released 1964
04. I Wanna Be Your Man (Lennon-McCartney)
from the LP "With The Beatles" released 1963
05. I Call Your Name (Lennon-McCartney)
released as single in 1964

продолжение трек листа Vol.1

06. Boys (Dixon-Farrell)
from the LP "Please, Please Me" released 1963
07. Long Tall Sally (Johnson-Penniman-Blackwell)
from the LP "Beatles' Greatest" released 1968
08. Rock and Roll Music (Berry)
from the LP "Beatles For Sale" released 1964
09. Slow Down (Williams)
from the LP "Something New" released 1964
10. Medley: Kansas City / Hey, Hey, Hey, Hey (Leiber-Stoller-Penniman)
from the LP "Beatles For Sale" released 1964
11. Money (That's What I Want) (Bradford/Gordy)
from the LP "With The Beatles" released 1963
12. Bad Boy (Williams)
from the LP "Beatles VI" released 1966
13. Matchbox (Perkins)
from the LP "Something New" released 1964
14. Roll Over Beethoven (Berry)
from the LP "With The Beatles" released 1963
Состав:
John Lennon - vocals, rhythm guitar, Hammond organ
Paul McCartney - vocals, bass guitar
George Harrison - vocals, lead guitar
Ringo Starr - vocals, drums, cowbells, bongos, maracas
George Martin - piano, producer

Technical info:

Vinyl Condition Cod (Код состояния винила): NEAR MINT (90%-100% практически идеальное состояние)
Vinyl Cleaning (Чистка винила): Knosti Antistatic Record Cleaning Machine, Goldring Super Exstatic Carbon Fiber Brush
Turntable (Вертушка): Bang & Olufsen Beocenter-7007 Type 1821
Phono Cartridge (Звукосниматель): MMC 4 (Moving Micro Cross) (Frequency 20-20000 Hz)
Stylus (Игла): Titanium-coated elliptical diamond
Interconnect (Кабель межблочный): Oyaide PA-02 (медь марки PCOCC-A, сверхчистая монокристаллическая, 0.0264 Ом/м, 32 пФ/м)
AD converter (AЦП): Asahi Kasei Microsystems Co., Ltd. AKM AK5385A
Sound Card (Звуковая карта): Creative Professional E-MU 0404 USB 2.0
Digitalization Soft (Программа-оцифровщик): Sony Sound Forge Pro v10.0
Audio signal processing (Обработка): Ручное удаление единичных щелчков
Processing Soft (Программа-обработчик): iZotope RX Advanced v2.10.656
Format: Vinyl-Rip, 24bps/96KHz, tracks flac + cue

MI

Код:
Общее
Полное имя                               : C:\Beatles - Rock'n'Roll Music Vol.1 (1980)[Vinyl-Rip, 24-96]\01 - Twist And Shout.flac
Формат                                   : FLAC
Формат/Информация                        : Free Lossless Audio Codec
Размер файла                             : 57,8 Мбайт
Продолжительность                        : 2 м. 36 с.
Режим общего битрейта                    : Переменный
Общий поток                              : 3110 Кбит/сек
Альбом                                   : Rock'n'Roll Music, Vol. 1
Альбом/Исполнитель                       : The Beatles
Трек                                     : Twist And Shout
Трек/Положение                           : 1
Трек/Всего                               : 7
Исполнитель                              : The Beatles
Продюсер                                 : Music For Pleasure
Жанр                                     : Rock
Дата записи                              : 1980
LABELNO                                  : MFP 50506
Аудио
Формат                                   : FLAC
Формат/Информация                        : Free Lossless Audio Codec
Продолжительность                        : 2 м. 36 с.
Вид битрейта                             : Переменный
Битрейт                                  : 3110 Кбит/сек
Каналы                                   : 2 канала
Частота                                  : 96,0 КГц
Битовая глубина                          : 24 бит
Размер потока                            : 57,8 Мбайт (100%)
Библиотека кодирования                   : libFLAC 1.2.1 (UTC 2007-09-17)
Общее
Полное имя                               : C:\Beatles - Rock'n'Roll Music Vol.1 (1980)[Vinyl-Rip, 24-96]\02 - I Saw Her Standing There.flac
Формат                                   : FLAC
Формат/Информация                        : Free Lossless Audio Codec
Размер файла                             : 64,8 Мбайт
Продолжительность                        : 2 м. 54 с.
Режим общего битрейта                    : Переменный
Общий поток                              : 3125 Кбит/сек
Альбом                                   : Rock'n'Roll Music, Vol. 1
Альбом/Исполнитель                       : The Beatles
Трек                                     : I Saw Her Standing There
Трек/Положение                           : 2
Трек/Всего                               : 7
Исполнитель                              : The Beatles
Продюсер                                 : Music For Pleasure
Жанр                                     : Rock
Дата записи                              : 1980
LABELNO                                  : MFP 50506
Аудио
Формат                                   : FLAC
Формат/Информация                        : Free Lossless Audio Codec
Продолжительность                        : 2 м. 54 с.
Вид битрейта                             : Переменный
Битрейт                                  : 3125 Кбит/сек
Каналы                                   : 2 канала
Частота                                  : 96,0 КГц
Битовая глубина                          : 24 бит
Размер потока                            : 64,8 Мбайт (100%)
Библиотека кодирования                   : libFLAC 1.2.1 (UTC 2007-09-17)
Общее
Полное имя                               : C:\Beatles - Rock'n'Roll Music Vol.1 (1980)[Vinyl-Rip, 24-96]\03 - You Can't Do That.flac
Формат                                   : FLAC
Формат/Информация                        : Free Lossless Audio Codec
Размер файла                             : 59,7 Мбайт
Продолжительность                        : 2 м. 34 с.
Режим общего битрейта                    : Переменный
Общий поток                              : 3252 Кбит/сек
Альбом                                   : Rock'n'Roll Music, Vol. 1
Альбом/Исполнитель                       : The Beatles
Трек                                     : You Can't Do That
Трек/Положение                           : 3
Трек/Всего                               : 7
Исполнитель                              : The Beatles
Продюсер                                 : Music For Pleasure
Жанр                                     : Rock
Дата записи                              : 1980
LABELNO                                  : MFP 50506
Аудио
Формат                                   : FLAC
Формат/Информация                        : Free Lossless Audio Codec
Продолжительность                        : 2 м. 34 с.
Вид битрейта                             : Переменный
Битрейт                                  : 3251 Кбит/сек
Каналы                                   : 2 канала
Частота                                  : 96,0 КГц
Битовая глубина                          : 24 бит
Размер потока                            : 59,7 Мбайт (100%)
Библиотека кодирования                   : libFLAC 1.2.1 (UTC 2007-09-17)
Общее
Полное имя                               : C:\Beatles - Rock'n'Roll Music Vol.1 (1980)[Vinyl-Rip, 24-96]\04 - I Wanna Be Your Man.flac
Формат                                   : FLAC
Формат/Информация                        : Free Lossless Audio Codec
Размер файла                             : 47,5 Мбайт
Продолжительность                        : 2 м. 0 с.
Режим общего битрейта                    : Переменный
Общий поток                              : 3320 Кбит/сек
Альбом                                   : Rock'n'Roll Music, Vol. 1
Альбом/Исполнитель                       : The Beatles
Трек                                     : I Wanna Be Your Man
Трек/Положение                           : 4
Трек/Всего                               : 7
Исполнитель                              : The Beatles
Продюсер                                 : Music For Pleasure
Жанр                                     : Rock
Дата записи                              : 1980
LABELNO                                  : MFP 50506
Аудио
Формат                                   : FLAC
Формат/Информация                        : Free Lossless Audio Codec
Продолжительность                        : 2 м. 0 с.
Вид битрейта                             : Переменный
Битрейт                                  : 3319 Кбит/сек
Каналы                                   : 2 канала
Частота                                  : 96,0 КГц
Битовая глубина                          : 24 бит
Размер потока                            : 47,5 Мбайт (100%)
Библиотека кодирования                   : libFLAC 1.2.1 (UTC 2007-09-17)
Общее
Полное имя                               : C:\Beatles - Rock'n'Roll Music Vol.1 (1980)[Vinyl-Rip, 24-96]\05 - I Call Your Name.flac
Формат                                   : FLAC
Формат/Информация                        : Free Lossless Audio Codec
Размер файла                             : 49,7 Мбайт
Продолжительность                        : 2 м. 10 с.
Режим общего битрейта                    : Переменный
Общий поток                              : 3204 Кбит/сек
Альбом                                   : Rock'n'Roll Music, Vol. 1
Альбом/Исполнитель                       : The Beatles
Трек                                     : I Call Your Name
Трек/Положение                           : 5
Трек/Всего                               : 7
Исполнитель                              : The Beatles
Продюсер                                 : Music For Pleasure
Жанр                                     : Rock
Дата записи                              : 1980
LABELNO                                  : MFP 50506
Аудио
Формат                                   : FLAC
Формат/Информация                        : Free Lossless Audio Codec
Продолжительность                        : 2 м. 10 с.
Вид битрейта                             : Переменный
Битрейт                                  : 3204 Кбит/сек
Каналы                                   : 2 канала
Частота                                  : 96,0 КГц
Битовая глубина                          : 24 бит
Размер потока                            : 49,7 Мбайт (100%)
Библиотека кодирования                   : libFLAC 1.2.1 (UTC 2007-09-17)
Общее
Полное имя                               : C:\Beatles - Rock'n'Roll Music Vol.1 (1980)[Vinyl-Rip, 24-96]\06 - Boys.flac
Формат                                   : FLAC
Формат/Информация                        : Free Lossless Audio Codec
Размер файла                             : 52,9 Мбайт
Продолжительность                        : 2 м. 26 с.
Режим общего битрейта                    : Переменный
Общий поток                              : 3037 Кбит/сек
Альбом                                   : Rock'n'Roll Music, Vol. 1
Альбом/Исполнитель                       : The Beatles
Трек                                     : Boys
Трек/Положение                           : 6
Трек/Всего                               : 7
Исполнитель                              : The Beatles
Продюсер                                 : Music For Pleasure
Жанр                                     : Rock
Дата записи                              : 1980
LABELNO                                  : MFP 50506
Аудио
Формат                                   : FLAC
Формат/Информация                        : Free Lossless Audio Codec
Продолжительность                        : 2 м. 26 с.
Вид битрейта                             : Переменный
Битрейт                                  : 3036 Кбит/сек
Каналы                                   : 2 канала
Частота                                  : 96,0 КГц
Битовая глубина                          : 24 бит
Размер потока                            : 52,8 Мбайт (100%)
Библиотека кодирования                   : libFLAC 1.2.1 (UTC 2007-09-17)
Общее
Полное имя                               : C:\Beatles - Rock'n'Roll Music Vol.1 (1980)[Vinyl-Rip, 24-96]\07 - Long Tall Sally.flac
Формат                                   : FLAC
Формат/Информация                        : Free Lossless Audio Codec
Размер файла                             : 47,8 Мбайт
Продолжительность                        : 2 м. 2 с.
Режим общего битрейта                    : Переменный
Общий поток                              : 3265 Кбит/сек
Альбом                                   : Rock'n'Roll Music, Vol. 1
Альбом/Исполнитель                       : The Beatles
Трек                                     : Long Tall Sally
Трек/Положение                           : 7
Трек/Всего                               : 7
Исполнитель                              : The Beatles
Продюсер                                 : Music For Pleasure
Жанр                                     : Rock
Дата записи                              : 1980
LABELNO                                  : MFP 50506
Аудио
Формат                                   : FLAC
Формат/Информация                        : Free Lossless Audio Codec
Продолжительность                        : 2 м. 2 с.
Вид битрейта                             : Переменный
Битрейт                                  : 3264 Кбит/сек
Каналы                                   : 2 канала
Частота                                  : 96,0 КГц
Битовая глубина                          : 24 бит
Размер потока                            : 47,8 Мбайт (100%)
Библиотека кодирования                   : libFLAC 1.2.1 (UTC 2007-09-17)
Общее
Полное имя                               : C:\Beatles - Rock'n'Roll Music Vol.1 (1980)[Vinyl-Rip, 24-96]\08 - Rock And Roll Music.flac
Формат                                   : FLAC
Формат/Информация                        : Free Lossless Audio Codec
Размер файла                             : 56,7 Мбайт
Продолжительность                        : 2 м. 33 с.
Режим общего битрейта                    : Переменный
Общий поток                              : 3094 Кбит/сек
Альбом                                   : Rock'n'Roll Music, Vol. 1
Альбом/Исполнитель                       : The Beatles
Трек                                     : Rock And Roll Music
Трек/Положение                           : 8
Трек/Всего                               : 7
Исполнитель                              : The Beatles
Продюсер                                 : Music For Pleasure
Жанр                                     : Rock
Дата записи                              : 1980
LABELNO                                  : MFP 50506
Аудио
Формат                                   : FLAC
Формат/Информация                        : Free Lossless Audio Codec
Продолжительность                        : 2 м. 33 с.
Вид битрейта                             : Переменный
Битрейт                                  : 3093 Кбит/сек
Каналы                                   : 2 канала
Частота                                  : 96,0 КГц
Битовая глубина                          : 24 бит
Размер потока                            : 56,7 Мбайт (100%)
Библиотека кодирования                   : libFLAC 1.2.1 (UTC 2007-09-17)
Общее
Полное имя                               : C:\Beatles - Rock'n'Roll Music Vol.1 (1980)[Vinyl-Rip, 24-96]\09 - Slow Down.flac
Формат                                   : FLAC
Формат/Информация                        : Free Lossless Audio Codec
Размер файла                             : 66,2 Мбайт
Продолжительность                        : 2 м. 56 с.
Режим общего битрейта                    : Переменный
Общий поток                              : 3139 Кбит/сек
Альбом                                   : Rock'n'Roll Music, Vol. 1
Альбом/Исполнитель                       : The Beatles
Трек                                     : Slow Down
Трек/Положение                           : 9
Трек/Всего                               : 7
Исполнитель                              : The Beatles
Продюсер                                 : Music For Pleasure
Жанр                                     : Rock
Дата записи                              : 1980
LABELNO                                  : MFP 50506
Аудио
Формат                                   : FLAC
Формат/Информация                        : Free Lossless Audio Codec
Продолжительность                        : 2 м. 56 с.
Вид битрейта                             : Переменный
Битрейт                                  : 3139 Кбит/сек
Каналы                                   : 2 канала
Частота                                  : 96,0 КГц
Битовая глубина                          : 24 бит
Размер потока                            : 66,2 Мбайт (100%)
Библиотека кодирования                   : libFLAC 1.2.1 (UTC 2007-09-17)
Общее
Полное имя                               : C:\Beatles - Rock'n'Roll Music Vol.1 (1980)[Vinyl-Rip, 24-96]\10 - Kansas City.flac
Формат                                   : FLAC
Формат/Информация                        : Free Lossless Audio Codec
Размер файла                             : 57,4 Мбайт
Продолжительность                        : 2 м. 39 с.
Режим общего битрейта                    : Переменный
Общий поток                              : 3022 Кбит/сек
Альбом                                   : Rock'n'Roll Music, Vol. 1
Альбом/Исполнитель                       : The Beatles
Трек                                     : Kansas City
Трек/Положение                           : 10
Трек/Всего                               : 7
Исполнитель                              : The Beatles
Продюсер                                 : Music For Pleasure
Жанр                                     : Rock
Дата записи                              : 1980
LABELNO                                  : MFP 50506
Аудио
Формат                                   : FLAC
Формат/Информация                        : Free Lossless Audio Codec
Продолжительность                        : 2 м. 39 с.
Вид битрейта                             : Переменный
Битрейт                                  : 3021 Кбит/сек
Каналы                                   : 2 канала
Частота                                  : 96,0 КГц
Битовая глубина                          : 24 бит
Размер потока                            : 57,4 Мбайт (100%)
Библиотека кодирования                   : libFLAC 1.2.1 (UTC 2007-09-17)
Общее
Полное имя                               : C:\Beatles - Rock'n'Roll Music Vol.1 (1980)[Vinyl-Rip, 24-96]\11 - Money (That's What I Want).flac
Формат                                   : FLAC
Формат/Информация                        : Free Lossless Audio Codec
Размер файла                             : 64,6 Мбайт
Продолжительность                        : 2 м. 50 с.
Режим общего битрейта                    : Переменный
Общий поток                              : 3190 Кбит/сек
Альбом                                   : Rock'n'Roll Music, Vol. 1
Альбом/Исполнитель                       : The Beatles
Трек                                     : Money (That's What I Want)
Трек/Положение                           : 11
Трек/Всего                               : 7
Исполнитель                              : The Beatles
Продюсер                                 : Music For Pleasure
Жанр                                     : Rock
Дата записи                              : 1980
LABELNO                                  : MFP 50506
Аудио
Формат                                   : FLAC
Формат/Информация                        : Free Lossless Audio Codec
Продолжительность                        : 2 м. 50 с.
Вид битрейта                             : Переменный
Битрейт                                  : 3190 Кбит/сек
Каналы                                   : 2 канала
Частота                                  : 96,0 КГц
Битовая глубина                          : 24 бит
Размер потока                            : 64,6 Мбайт (100%)
Библиотека кодирования                   : libFLAC 1.2.1 (UTC 2007-09-17)
Общее
Полное имя                               : C:\Beatles - Rock'n'Roll Music Vol.1 (1980)[Vinyl-Rip, 24-96]\12 - Bad Boy.flac
Формат                                   : FLAC
Формат/Информация                        : Free Lossless Audio Codec
Размер файла                             : 53,8 Мбайт
Продолжительность                        : 2 м. 21 с.
Режим общего битрейта                    : Переменный
Общий поток                              : 3198 Кбит/сек
Альбом                                   : Rock'n'Roll Music, Vol. 1
Альбом/Исполнитель                       : The Beatles
Трек                                     : Bad Boy
Трек/Положение                           : 12
Трек/Всего                               : 7
Исполнитель                              : The Beatles
Продюсер                                 : Music For Pleasure
Жанр                                     : Rock
Дата записи                              : 1980
LABELNO                                  : MFP 50506
Аудио
Формат                                   : FLAC
Формат/Информация                        : Free Lossless Audio Codec
Продолжительность                        : 2 м. 21 с.
Вид битрейта                             : Переменный
Битрейт                                  : 3198 Кбит/сек
Каналы                                   : 2 канала
Частота                                  : 96,0 КГц
Битовая глубина                          : 24 бит
Размер потока                            : 53,7 Мбайт (100%)
Библиотека кодирования                   : libFLAC 1.2.1 (UTC 2007-09-17)
Общее
Полное имя                               : C:\Beatles - Rock'n'Roll Music Vol.1 (1980)[Vinyl-Rip, 24-96]\13 - Matchbox.flac
Формат                                   : FLAC
Формат/Информация                        : Free Lossless Audio Codec
Размер файла                             : 44,0 Мбайт
Продолжительность                        : 1 м. 59 с.
Режим общего битрейта                    : Переменный
Общий поток                              : 3104 Кбит/сек
Альбом                                   : Rock'n'Roll Music, Vol. 1
Альбом/Исполнитель                       : The Beatles
Трек                                     : Matchbox
Трек/Положение                           : 13
Трек/Всего                               : 7
Исполнитель                              : The Beatles
Продюсер                                 : Music For Pleasure
Жанр                                     : Rock
Дата записи                              : 1980
LABELNO                                  : MFP 50506
Аудио
Формат                                   : FLAC
Формат/Информация                        : Free Lossless Audio Codec
Продолжительность                        : 1 м. 59 с.
Вид битрейта                             : Переменный
Битрейт                                  : 3104 Кбит/сек
Каналы                                   : 2 канала
Частота                                  : 96,0 КГц
Битовая глубина                          : 24 бит
Размер потока                            : 44,0 Мбайт (100%)
Библиотека кодирования                   : libFLAC 1.2.1 (UTC 2007-09-17)
Общее
Полное имя                               : C:\Beatles - Rock'n'Roll Music Vol.1 (1980)[Vinyl-Rip, 24-96]\14 - Roll Over Beethoven.flac
Формат                                   : FLAC
Формат/Информация                        : Free Lossless Audio Codec
Размер файла                             : 64,6 Мбайт
Продолжительность                        : 2 м. 45 с.
Режим общего битрейта                    : Переменный
Общий поток                              : 3280 Кбит/сек
Альбом                                   : Rock'n'Roll Music, Vol. 1
Альбом/Исполнитель                       : The Beatles
Трек                                     : Roll Over Beethoven
Трек/Положение                           : 14
Трек/Всего                               : 7
Исполнитель                              : The Beatles
Продюсер                                 : Music For Pleasure
Жанр                                     : Rock
Дата записи                              : 1980
LABELNO                                  : MFP 50506
Аудио
Формат                                   : FLAC
Формат/Информация                        : Free Lossless Audio Codec
Продолжительность                        : 2 м. 45 с.
Вид битрейта                             : Переменный
Битрейт                                  : 3279 Кбит/сек
Каналы                                   : 2 канала
Частота                                  : 96,0 КГц
Битовая глубина                          : 24 бит
Размер потока                            : 64,6 Мбайт (100%)
Библиотека кодирования                   : libFLAC 1.2.1 (UTC 2007-09-17)

Спектр, Уровень, АЧХ:

       

Dynamic Range Meter:

Код:
foobar2000 1.2.2 / Dynamic Range Meter 1.1.1
log date: 2013-05-24 04:54:10
--------------------------------------------------------------------------------
Analyzed: The Beatles / Rock'n'Roll Music, Volume 1, Side 1
--------------------------------------------------------------------------------
DR         Peak         RMS     Duration Track
--------------------------------------------------------------------------------
DR7       -0.53 dB    -9.17 dB      2:36 01-Twist And Shout
DR8       -0.29 dB   -10.11 dB      2:54 02-I Saw Her Standing There
DR8       -0.54 dB    -9.92 dB      2:34 03-You Can't Do That
DR7       -0.60 dB    -9.09 dB      2:00 04-I Wanna Be Your Man
DR9       -0.92 dB   -11.72 dB      2:10 05-I Call Your Name
DR8       -0.57 dB   -10.85 dB      2:26 06-Boys
DR8       -1.07 dB   -10.49 dB      2:03 07-Long Tall Sally
--------------------------------------------------------------------------------
Number of tracks:  7
Official DR value: DR8
Samplerate:        96000 Hz
Channels:          2
Bits per sample:   24
Bitrate:           4608 kbps
Codec:             PCM
================================================================================
foobar2000 1.2.2 / Dynamic Range Meter 1.1.1
log date: 2013-05-24 05:19:05
--------------------------------------------------------------------------------
Analyzed: The Beatles / Rock'n'Roll Music, Volume 1, Side 2
--------------------------------------------------------------------------------
DR         Peak         RMS     Duration Track
--------------------------------------------------------------------------------
DR6        0.00 dB    -7.19 dB      2:34 08-Rock And Roll Music
DR7       -0.26 dB    -8.99 dB      2:57 09-Slow Down
DR7        0.00 dB    -8.61 dB      2:39 10-Kansas City
DR5       -0.94 dB    -7.53 dB      2:50 11-Money (That's What I Want)
DR7       -1.14 dB    -9.02 dB      2:21 12-Bad Boy
DR7       -0.86 dB    -9.86 dB      1:59 13-Matchbox
DR7       -1.22 dB    -9.48 dB      2:45 14-Roll Over Beethoven
--------------------------------------------------------------------------------
Number of tracks:  7
Official DR value: DR7
Samplerate:        96000 Hz
Channels:          2
Bits per sample:   24
Bitrate:           4608 kbps
Codec:             PCM
================================================================================

Vol. 2

Продолжительность: 00:34:37
Трек лист:
01. Dizzy Miss Lizzy
(Williams)1965
02. Anytime At All
(Lennon-McCartney) 1964
03. Drive My Car
(Lennon-McCartney) 1965
04. Everybody's Trying To Be My Baby
(Perkins) 1964
05. The Night Before
(Lennon-McCartney) 1965
06. I'm Down
(Lennon-McCartney) 1965
07. Revolution
(Lennon-McCartney) 1968
08. Back In The U.S.S.R.
(Lennon-McCartney) 1968
09. Helter Skelter
(Lennon-McCartney) 1968
10. Taxman
(Harrison) 1966
11. Got To Get You Into My Life
(Lennon-McCartney) 1966
12. Hey Bulldog
(Lennon-McCartney) 1969
13. Birthday
(Lennon-McCartney) 1968
14. Get Back
(Lennon-McCartney) 1970
Состав:
John Lennon - vocals, rhythm guitar, Hammond organ
Paul McCartney - vocals, bass guitar
George Harrison - vocals, lead guitar
Ringo Starr - vocals, drums, cowbells, bongos, maracas
George Martin - piano, producer

Technical info:

Vinyl Condition Cod (Код состояния винила): NEAR MINT (90%-100% практически идеальное состояние)
Vinyl Cleaning (Чистка винила): Knosti Antistatic Record Cleaning Machine, Goldring Super Exstatic Carbon Fiber Brush
Turntable (Вертушка): Bang & Olufsen Beocenter-7007 Type 1821
Phono Cartridge (Звукосниматель): MMC 4 (Moving Micro Cross) (Frequency 20-20000 Hz)
Stylus (Игла): Titanium-coated elliptical diamond
Interconnect (Кабель межблочный): Oyaide PA-02 (медь марки PCOCC-A, сверхчистая монокристаллическая, 0.0264 Ом/м, 32 пФ/м)
AD converter (AЦП): Asahi Kasei Microsystems Co., Ltd. AKM AK5385A
Sound Card (Звуковая карта): Creative Professional E-Mu 0404 USB 2.0
Digitalization Soft (Программа-оцифровщик): Sony Sound Forge Pro v10.0
Audio signal processing (Обработка): Ручное удаление единичных щелчков
Processing Soft (Программа-обработчик): iZotope RX Advanced v2.10.656
Format: Vinyl-Rip, 24bps/96KHz, tracks flac + cue

MI

Код:
Общее
Полное имя                               : C:\Beatles - Rock'n'Roll Music Vol.2 (1980)[Vinyl-Rip, 24-96]\01 - Dizzy Miss Lizzy.flac
Формат                                   : FLAC
Формат/Информация                        : Free Lossless Audio Codec
Размер файла                             : 67,7 Мбайт
Продолжительность                        : 2 м. 55 с.
Режим общего битрейта                    : Переменный
Общий поток                              : 3234 Кбит/сек
Альбом                                   : Rock'n'roll Music, Volume 2
Альбом/Исполнитель                       : The Beatles
Трек                                     : Dizzy Miss Lizzy
Трек/Положение                           : 01
Исполнитель                              : The Beatles
Продюсер                                 : Emi, Music For Pleasure
Жанр                                     : Rock
Дата записи                              : 1980
LABELNO                                  : MFP 50507
Аудио
Формат                                   : FLAC
Формат/Информация                        : Free Lossless Audio Codec
Продолжительность                        : 2 м. 55 с.
Вид битрейта                             : Переменный
Битрейт                                  : 3233 Кбит/сек
Каналы                                   : 2 канала
Частота                                  : 96,0 КГц
Битовая глубина                          : 24 бит
Размер потока                            : 67,7 Мбайт (100%)
Библиотека кодирования                   : libFLAC 1.2.1 (UTC 2007-09-17)
Общее
Полное имя                               : C:\Beatles - Rock'n'Roll Music Vol.2 (1980)[Vinyl-Rip, 24-96]\02 - Anytime At All.flac
Формат                                   : FLAC
Формат/Информация                        : Free Lossless Audio Codec
Размер файла                             : 50,0 Мбайт
Продолжительность                        : 2 м. 12 с.
Режим общего битрейта                    : Переменный
Общий поток                              : 3169 Кбит/сек
Альбом                                   : Rock'n'roll Music, Volume 2
Альбом/Исполнитель                       : The Beatles
Трек                                     : Anytime At All
Трек/Положение                           : 02
Трек/Всего                               : 7
Исполнитель                              : The Beatles
Продюсер                                 : Emi, Music For Pleasure
Жанр                                     : Rock
Дата записи                              : 1980
LABELNO                                  : MFP 50507
Аудио
Формат                                   : FLAC
Формат/Информация                        : Free Lossless Audio Codec
Продолжительность                        : 2 м. 12 с.
Вид битрейта                             : Переменный
Битрейт                                  : 3168 Кбит/сек
Каналы                                   : 2 канала
Частота                                  : 96,0 КГц
Битовая глубина                          : 24 бит
Размер потока                            : 50,0 Мбайт (100%)
Библиотека кодирования                   : libFLAC 1.2.1 (UTC 2007-09-17)
Общее
Полное имя                               : C:\Beatles - Rock'n'Roll Music Vol.2 (1980)[Vinyl-Rip, 24-96]\03 - Drive My Car.flac
Формат                                   : FLAC
Формат/Информация                        : Free Lossless Audio Codec
Размер файла                             : 55,7 Мбайт
Продолжительность                        : 2 м. 28 с.
Режим общего битрейта                    : Переменный
Общий поток                              : 3149 Кбит/сек
Альбом                                   : Rock'n'roll Music, Volume 2
Альбом/Исполнитель                       : The Beatles
Трек                                     : Drive My Car
Трек/Положение                           : 03
Трек/Всего                               : 7
Исполнитель                              : The Beatles
Продюсер                                 : Emi, Music For Pleasure
Жанр                                     : Rock
Дата записи                              : 1980
LABELNO                                  : MFP 50507
Аудио
Формат                                   : FLAC
Формат/Информация                        : Free Lossless Audio Codec
Продолжительность                        : 2 м. 28 с.
Вид битрейта                             : Переменный
Битрейт                                  : 3148 Кбит/сек
Каналы                                   : 2 канала
Частота                                  : 96,0 КГц
Битовая глубина                          : 24 бит
Размер потока                            : 55,7 Мбайт (100%)
Библиотека кодирования                   : libFLAC 1.2.1 (UTC 2007-09-17)
Общее
Полное имя                               : C:\Beatles - Rock'n'Roll Music Vol.2 (1980)[Vinyl-Rip, 24-96]\04 - Everybody's Trying To Be My Baby.flac
Формат                                   : FLAC
Формат/Информация                        : Free Lossless Audio Codec
Размер файла                             : 55,7 Мбайт
Продолжительность                        : 2 м. 26 с.
Режим общего битрейта                    : Переменный
Общий поток                              : 3197 Кбит/сек
Альбом                                   : Rock'n'roll Music, Volume 2
Альбом/Исполнитель                       : The Beatles
Трек                                     : Everybody's Trying To Be My Baby
Трек/Положение                           : 04
Трек/Всего                               : 7
Исполнитель                              : The Beatles
Продюсер                                 : Emi, Music For Pleasure
Жанр                                     : Rock
Дата записи                              : 1980
LABELNO                                  : MFP 50507
Аудио
Формат                                   : FLAC
Формат/Информация                        : Free Lossless Audio Codec
Продолжительность                        : 2 м. 26 с.
Вид битрейта                             : Переменный
Битрейт                                  : 3196 Кбит/сек
Каналы                                   : 2 канала
Частота                                  : 96,0 КГц
Битовая глубина                          : 24 бит
Размер потока                            : 55,7 Мбайт (100%)
Библиотека кодирования                   : libFLAC 1.2.1 (UTC 2007-09-17)
Общее
Полное имя                               : C:\Beatles - Rock'n'Roll Music Vol.2 (1980)[Vinyl-Rip, 24-96]\05 - The Night Before.flac
Формат                                   : FLAC
Формат/Информация                        : Free Lossless Audio Codec
Размер файла                             : 56,4 Мбайт
Продолжительность                        : 2 м. 34 с.
Режим общего битрейта                    : Переменный
Общий поток                              : 3067 Кбит/сек
Альбом                                   : Rock'n'roll Music, Volume 2
Альбом/Исполнитель                       : The Beatles
Трек                                     : The Night Before
Трек/Положение                           : 05
Трек/Всего                               : 7
Исполнитель                              : The Beatles
Продюсер                                 : Emi, Music For Pleasure
Жанр                                     : Rock
Дата записи                              : 1980
LABELNO                                  : MFP 50507
Аудио
Формат                                   : FLAC
Формат/Информация                        : Free Lossless Audio Codec
Продолжительность                        : 2 м. 34 с.
Вид битрейта                             : Переменный
Битрейт                                  : 3067 Кбит/сек
Каналы                                   : 2 канала
Частота                                  : 96,0 КГц
Битовая глубина                          : 24 бит
Размер потока                            : 56,4 Мбайт (100%)
Библиотека кодирования                   : libFLAC 1.2.1 (UTC 2007-09-17)
Общее
Полное имя                               : C:\Beatles - Rock'n'Roll Music Vol.2 (1980)[Vinyl-Rip, 24-96]\06 - I'm Down.flac
Формат                                   : FLAC
Формат/Информация                        : Free Lossless Audio Codec
Размер файла                             : 55,5 Мбайт
Продолжительность                        : 2 м. 32 с.
Режим общего битрейта                    : Переменный
Общий поток                              : 3063 Кбит/сек
Альбом                                   : Rock'n'roll Music, Volume 2
Альбом/Исполнитель                       : The Beatles
Трек                                     : I'm Down
Трек/Положение                           : 06
Трек/Всего                               : 7
Исполнитель                              : The Beatles
Продюсер                                 : Emi, Music For Pleasure
Жанр                                     : Rock
Дата записи                              : 1980
LABELNO                                  : MFP 50507
Аудио
Формат                                   : FLAC
Формат/Информация                        : Free Lossless Audio Codec
Продолжительность                        : 2 м. 32 с.
Вид битрейта                             : Переменный
Битрейт                                  : 3062 Кбит/сек
Каналы                                   : 2 канала
Частота                                  : 96,0 КГц
Битовая глубина                          : 24 бит
Размер потока                            : 55,5 Мбайт (100%)
Библиотека кодирования                   : libFLAC 1.2.1 (UTC 2007-09-17)
Общее
Полное имя                               : C:\Beatles - Rock'n'Roll Music Vol.2 (1980)[Vinyl-Rip, 24-96]\07 - Revolution.flac
Формат                                   : FLAC
Формат/Информация                        : Free Lossless Audio Codec
Размер файла                             : 75,9 Мбайт
Продолжительность                        : 3 м. 25 с.
Режим общего битрейта                    : Переменный
Общий поток                              : 3102 Кбит/сек
Альбом                                   : Rock'n'roll Music, Volume 2
Альбом/Исполнитель                       : The Beatles
Трек                                     : Revolution
Трек/Положение                           : 07
Трек/Всего                               : 7
Исполнитель                              : The Beatles
Продюсер                                 : Emi, Music For Pleasure
Жанр                                     : Rock
Дата записи                              : 1980
LABELNO                                  : MFP 50507
Аудио
Формат                                   : FLAC
Формат/Информация                        : Free Lossless Audio Codec
Продолжительность                        : 3 м. 25 с.
Вид битрейта                             : Переменный
Битрейт                                  : 3102 Кбит/сек
Каналы                                   : 2 канала
Частота                                  : 96,0 КГц
Битовая глубина                          : 24 бит
Размер потока                            : 75,8 Мбайт (100%)
Библиотека кодирования                   : libFLAC 1.2.1 (UTC 2007-09-17)
Общее
Полное имя                               : C:\Beatles - Rock'n'Roll Music Vol.2 (1980)[Vinyl-Rip, 24-96]\08 - Back In The U.S.S.R..flac
Формат                                   : FLAC
Формат/Информация                        : Free Lossless Audio Codec
Размер файла                             : 62,4 Мбайт
Продолжительность                        : 2 м. 45 с.
Режим общего битрейта                    : Переменный
Общий поток                              : 3162 Кбит/сек
Альбом                                   : Rock'n'roll Music, Volume 2
Альбом/Исполнитель                       : The Beatles
Трек                                     : Back In The U.S.S.R.
Трек/Положение                           : 08
Трек/Всего                               : 7
Исполнитель                              : The Beatles
Продюсер                                 : Emi, Music For Pleasure
Жанр                                     : Rock
Дата записи                              : 1980
LABELNO                                  : MFP 50507
Аудио
Формат                                   : FLAC
Формат/Информация                        : Free Lossless Audio Codec
Продолжительность                        : 2 м. 45 с.
Вид битрейта                             : Переменный
Битрейт                                  : 3162 Кбит/сек
Каналы                                   : 2 канала
Частота                                  : 96,0 КГц
Битовая глубина                          : 24 бит
Размер потока                            : 62,4 Мбайт (100%)
Библиотека кодирования                   : libFLAC 1.2.1 (UTC 2007-09-17)
Общее
Полное имя                               : C:\Beatles - Rock'n'Roll Music Vol.2 (1980)[Vinyl-Rip, 24-96]\09 - Helter Skelter.flac
Формат                                   : FLAC
Формат/Информация                        : Free Lossless Audio Codec
Размер файла                             : 101 Мбайт
Продолжительность                        : 4 м. 31 с.
Режим общего битрейта                    : Переменный
Общий поток                              : 3135 Кбит/сек
Альбом                                   : Rock'n'roll Music, Volume 2
Альбом/Исполнитель                       : The Beatles
Трек                                     : Helter Skelter
Трек/Положение                           : 09
Трек/Всего                               : 7
Исполнитель                              : The Beatles
Продюсер                                 : Emi, Music For Pleasure
Жанр                                     : Rock
Дата записи                              : 1980
LABELNO                                  : MFP 50507
Аудио
Формат                                   : FLAC
Формат/Информация                        : Free Lossless Audio Codec
Продолжительность                        : 4 м. 31 с.
Вид битрейта                             : Переменный
Битрейт                                  : 3135 Кбит/сек
Каналы                                   : 2 канала
Частота                                  : 96,0 КГц
Битовая глубина                          : 24 бит
Размер потока                            : 101 Мбайт (100%)
Библиотека кодирования                   : libFLAC 1.2.1 (UTC 2007-09-17)
Общее
Полное имя                               : C:\Beatles - Rock'n'Roll Music Vol.2 (1980)[Vinyl-Rip, 24-96]\10 - Taxman.flac
Формат                                   : FLAC
Формат/Информация                        : Free Lossless Audio Codec
Размер файла                             : 57,8 Мбайт
Продолжительность                        : 2 м. 39 с.
Режим общего битрейта                    : Переменный
Общий поток                              : 3052 Кбит/сек
Альбом                                   : Rock'n'roll Music, Volume 2
Альбом/Исполнитель                       : The Beatles
Трек                                     : Taxman
Трек/Положение                           : 10
Трек/Всего                               : 7
Исполнитель                              : The Beatles
Продюсер                                 : Emi, Music For Pleasure
Жанр                                     : Rock
Дата записи                              : 1980
LABELNO                                  : MFP 50507
Аудио
Формат                                   : FLAC
Формат/Информация                        : Free Lossless Audio Codec
Продолжительность                        : 2 м. 39 с.
Вид битрейта                             : Переменный
Битрейт                                  : 3052 Кбит/сек
Каналы                                   : 2 канала
Частота                                  : 96,0 КГц
Битовая глубина                          : 24 бит
Размер потока                            : 57,8 Мбайт (100%)
Библиотека кодирования                   : libFLAC 1.2.1 (UTC 2007-09-17)
Общее
Полное имя                               : C:\Beatles - Rock'n'Roll Music Vol.2 (1980)[Vinyl-Rip, 24-96]\11 - Got To Get You Into My Life.flac
Формат                                   : FLAC
Формат/Информация                        : Free Lossless Audio Codec
Размер файла                             : 55,5 Мбайт
Продолжительность                        : 2 м. 30 с.
Режим общего битрейта                    : Переменный
Общий поток                              : 3103 Кбит/сек
Альбом                                   : Rock'n'roll Music, Volume 2
Альбом/Исполнитель                       : The Beatles
Трек                                     : Got To Get You Into My Life
Трек/Положение                           : 11
Трек/Всего                               : 7
Исполнитель                              : The Beatles
Продюсер                                 : Emi, Music For Pleasure
Жанр                                     : Rock
Дата записи                              : 1980
LABELNO                                  : MFP 50507
Аудио
Формат                                   : FLAC
Формат/Информация                        : Free Lossless Audio Codec
Продолжительность                        : 2 м. 30 с.
Вид битрейта                             : Переменный
Битрейт                                  : 3102 Кбит/сек
Каналы                                   : 2 канала
Частота                                  : 96,0 КГц
Битовая глубина                          : 24 бит
Размер потока                            : 55,5 Мбайт (100%)
Библиотека кодирования                   : libFLAC 1.2.1 (UTC 2007-09-17)
Общее
Полное имя                               : C:\Beatles - Rock'n'Roll Music Vol.2 (1980)[Vinyl-Rip, 24-96]\12 - Hey Bulldog.flac
Формат                                   : FLAC
Формат/Информация                        : Free Lossless Audio Codec
Размер файла                             : 69,1 Мбайт
Продолжительность                        : 3 м. 10 с.
Режим общего битрейта                    : Переменный
Общий поток                              : 3051 Кбит/сек
Альбом                                   : Rock'n'roll Music, Volume 2
Альбом/Исполнитель                       : The Beatles
Трек                                     : Hey Bulldog
Трек/Положение                           : 12
Трек/Всего                               : 7
Исполнитель                              : The Beatles
Продюсер                                 : Emi, Music For Pleasure
Жанр                                     : Rock
Дата записи                              : 1980
LABELNO                                  : MFP 50507
Аудио
Формат                                   : FLAC
Формат/Информация                        : Free Lossless Audio Codec
Продолжительность                        : 3 м. 10 с.
Вид битрейта                             : Переменный
Битрейт                                  : 3051 Кбит/сек
Каналы                                   : 2 канала
Частота                                  : 96,0 КГц
Битовая глубина                          : 24 бит
Размер потока                            : 69,1 Мбайт (100%)
Библиотека кодирования                   : libFLAC 1.2.1 (UTC 2007-09-17)
Общее
Полное имя                               : C:\Beatles - Rock'n'Roll Music Vol.2 (1980)[Vinyl-Rip, 24-96]\13 - Birthday.flac
Формат                                   : FLAC
Формат/Информация                        : Free Lossless Audio Codec
Размер файла                             : 62,5 Мбайт
Продолжительность                        : 2 м. 45 с.
Режим общего битрейта                    : Переменный
Общий поток                              : 3177 Кбит/сек
Альбом                                   : Rock'n'roll Music, Volume 2
Альбом/Исполнитель                       : The Beatles
Трек                                     : Birthday
Трек/Положение                           : 13
Трек/Всего                               : 7
Исполнитель                              : The Beatles
Продюсер                                 : Emi, Music For Pleasure
Жанр                                     : Rock
Дата записи                              : 1980
LABELNO                                  : MFP 50507
Аудио
Формат                                   : FLAC
Формат/Информация                        : Free Lossless Audio Codec
Продолжительность                        : 2 м. 45 с.
Вид битрейта                             : Переменный
Битрейт                                  : 3177 Кбит/сек
Каналы                                   : 2 канала
Частота                                  : 96,0 КГц
Битовая глубина                          : 24 бит
Размер потока                            : 62,5 Мбайт (100%)
Библиотека кодирования                   : libFLAC 1.2.1 (UTC 2007-09-17)
Общее
Полное имя                               : C:\Beatles - Rock'n'Roll Music Vol.2 (1980)[Vinyl-Rip, 24-96]\14 - Get Back.flac
Формат                                   : FLAC
Формат/Информация                        : Free Lossless Audio Codec
Размер файла                             : 65,9 Мбайт
Продолжительность                        : 3 м. 8 с.
Режим общего битрейта                    : Переменный
Общий поток                              : 2933 Кбит/сек
Альбом                                   : Rock'n'roll Music, Volume 2
Альбом/Исполнитель                       : The Beatles
Трек                                     : Get Back
Трек/Положение                           : 14
Трек/Всего                               : 7
Исполнитель                              : The Beatles
Продюсер                                 : Emi, Music For Pleasure
Жанр                                     : Rock
Дата записи                              : 1980
LABELNO                                  : MFP 50507
Аудио
Формат                                   : FLAC
Формат/Информация                        : Free Lossless Audio Codec
Продолжительность                        : 3 м. 8 с.
Вид битрейта                             : Переменный
Битрейт                                  : 2933 Кбит/сек
Каналы                                   : 2 канала
Частота                                  : 96,0 КГц
Битовая глубина                          : 24 бит
Размер потока                            : 65,9 Мбайт (100%)
Библиотека кодирования                   : libFLAC 1.2.1 (UTC 2007-09-17)

Спектр, Уровень, АЧХ:

       

Dynamic Range Meter:

Код:
foobar2000 1.2.2 / Dynamic Range Meter 1.1.1
log date: 2013-05-26 20:01:39
--------------------------------------------------------------------------------
Analyzed: The Beatles / Rock'n'roll Music, Volume 2
--------------------------------------------------------------------------------
DR         Peak         RMS     Duration Track
--------------------------------------------------------------------------------
DR6       -0.23 dB    -7.52 dB      2:56 01-Dizzy Miss Lizzy
DR7       -0.20 dB    -8.46 dB      2:12 02-Anytime At All
DR7        0.00 dB    -8.11 dB      2:28 03-Drive My Car
DR6        0.00 dB    -7.86 dB      2:26 04-Everybody's Trying To Be My Baby
DR6        0.00 dB    -7.85 dB      2:34 05-The Night Before
DR6       -0.04 dB    -7.67 dB      2:32 06-I'm Down
DR7        0.00 dB    -8.40 dB      3:25 07-Revolution
DR6       -0.47 dB    -8.52 dB      2:46 08-Back In The U.S.S.R.
DR6       -0.08 dB    -8.27 dB      4:31 09-Helter Skelter
DR7       -0.16 dB    -9.55 dB      2:39 10-Taxman
DR6        0.00 dB    -7.87 dB      2:30 11-Got To Get You Into My Life
DR8       -0.56 dB   -10.75 dB      3:10 12-Hey Bulldog
DR7       -0.41 dB    -8.79 dB      2:45 13-Birthday
DR7       -0.60 dB    -9.38 dB      3:08 14-Get Back
--------------------------------------------------------------------------------
Number of tracks:  14
Official DR value: DR7
Samplerate:        96000 Hz
Channels:          2
Bits per sample:   24
Bitrate:           2933 kbps
Codec:             FLAC
================================================================================

История

Изначально, альбом Rock'n'Roll Music был двойным и выходил в 1976 году на Capitol Records (кат.№ SKBO 11537) в США и на Parlophone (PCSP 719) - в Соединенном Королевстве. В прессе тогда объясняли выпуск этого альбома приурочиванием к двадцатилетию первой встречи Джона Леннона и Пола Маккартни. В таком случае, EMI ошиблась, ибо Джон с Полом встретились впервые в июле 1957-го. Называли и другую причину выпуска этого сборника - в ответ на обвинения фанов Rolling Stones будто бы The Beatles - попсовая группа, не способная играть рок-н-ролл. Подборка была сделана соответствующая - из репертуара ранних Битлов, когда они носили кожаные куртки, джинсы и ковбойские сапоги и куролесили на сцене, прыгая, кувыркаясь и выступая с унитазными сиденьями на шее.
Название альбома взято из одноименной песни Чака Берри и выражает концепцию альбома, собравшего квинтэссенцию рок-н-ролльного духа. Сюда вошли хиты многих рок-н-ролльщиков 1950-х - Чака Берри, Литтл Ричарда, Ларри Уильямса и др. Если сами Битлы и их английское поколение выросло на этих песнях в оригинальном американском исполнении, то мы и многие европейские поколения, начиная с 1970-х узнали эти песни прежде всего в битловском исполнении. И часто их каверы звучат более драйвово, более рок-н-ролльно, чем оригинал.
Но с производством альбома возникла целая история. Продюссер Битлз Джордж Мартин назвал в своей автобиографии этот альбом "проблемным". Когда глава фирмы Capitol, издающей The Beatles в Америке - обратился к Мартину, чтобы тот дал добро на выпуск альбома на базе пленок, какие у них имелись, Джордж, прослушав эти пленки, пришел в ужас. Это были старинные двухдорожечные монопленки, и с них собирались делать для альбома стереомикс. Вместо того, чтобы одобрить альбом в таком виде, Мартин сел за работу, отфильтровал и смикшировал каждую песню.
На более старых вещах - "Twist And Shout", "I Saw Her Standing There", "I Wanna Be Your Man", "Boys" и "Roll Over Beethoven" - он поменял местами стереоканалы, подвинул вокальную дорожку от краев к центру и слегка добавил эха, чтобы придать записи более современное звучание. Кое-где редактирование было неаккуратным: например, после "Back in the USSR" можно услышать вступительные ноты песни "Dear Prudence".
Когда Мартин принес пересведенные песни в EMI Records в Британии, те отказались использовать их. Они ссылались на строгие инструкции Битлов переиздавать только оригинальные записи. Поэтому ремиксы Джорджа Мартина использовали только в американском издании Rock'n'Roll Music, но они не пошли в ход при выпуске британской версии альбома Rock and Roll Music в 1976 году. Английский двойной альбом PCSP 719 состоял из оригинальных миксов, включая 5 стереомиксов, сделанных для этого альбома, а также из EP Long Tall Sally и песни I'm Down, впервые попавшей в альбом, ибо до того она издавалась только на обратной стороне сингла Help!
Обложка разворачивающегося конверта вызвала недовольство Битлов. Дело в том, что в середине 1970-х в Штатах была сильная ностальгия по 1950-м годам, и Capitol Records, для пущего успеха, решила сыграть на этой теме. На внутренней стороне конверта поместили в одну кучу символы 1950-х: музыкальный автомат (джукбокс) - неотъемлемый аттрибут всех баров и забегаловок тогдашней Америки, Мэрилин Монро на экране, "крылатый" красный Шевроле 1957 года и гамбургер со стаканом кока-колы на переднем плане. Лицевая сторона обложки изображала Битлов, нарисованных в манере комиксов, а заголовки напоминали неоновую рекламу. Ринго Старр возмущенно говорил в интервью Rolling Stone: "Это выставляет нас какими-то дешевками, а мы никогда не были дешевками. Всё это - кока-кола и машины с большими плавниками - было в пятидесятых!" Леннон предлагал сам сделать дизайн к альбому, но EMI отклонила его предложение.
В октябре 1980 альбом вышел на двух отдельных пластинках, под названиями Rock'n'Roll Music, Volume 1 и Rock'n'Roll Music, Volume 2 (US LP: Capitol SN-16020; UK LP: EMI/Music for Pleasure MFP 50506), и на сей раз британская версия состояла из ремикшированных версий Джорджа Мартина. На матрицах этих пластинок указаны такие номера: Vol 1 SKBO 11531 - A1-1 / B1-1 и Vol 2 SBKO 11531 -A2-1 / B2-1. На сей раз обложку сменили, поместив на конверт фото Битлов периода 1964-65 гг. Причем, в американском варианте обложки, Битлз стоят на фоне толпы, а в британском варианте толпу убрали, оставив Битлов на строгом белом фоне.
Rock'n'Roll Music имел огромный успех по выходе в свет в 1976 году, когда выросла большая волна ностальгии по Битлз. Интерес к альбому также подогрело грандиозное турне Пола Маккартни "Крылья над Америкой", пересекшего вдоль и поперек Соединенные Штаты и Канаду, как раз после выпуска Rock'n'Roll Music. Вторая пластинка альбома содержала песню "Helter Skelter". Как раз в то время по телевидению показали фильм о зверском групповом убийстве, совершенном бандой маньяка-убийцы Чарльза Мэнсона, утверждавшего, что он получил в зашифрованном виде сигнал пойти убивать именно в песне "Helter Skelter". На эти бредни никто не обращал внимания, разве что отдельные католические священники, пытавшиеся найти в песнях Битлз записанные задом наперед сатанинские послания. Трудно найти черную кошку в темной комнате. Особенно если ее там нет.
Rock'n'Roll Music настолько хорошо покупался, что достиг 2-го места в Биллборде. На 1-ое место его не пустил альбом Маккартни Wings at the Speed of Sound. В Англии Rock'n'Roll Music попал на 10-ое место в чартах NME.

Cover

       
 
Время раздачи: (до первых 10-ти сидов)
Other forum [Profile] [PM]

Dracula

Longevity: 7 years 3 months

Posts: 11234

Торрент-статистика

Post 29-May-2013 08:54 (after 8 hours)

Топик был перенесен из форума Классика зарубежного кино в форум Vinyl-Rip и Hand-Made


RUGUI
 
Display posts from previous:    
Reply to topic

The time now is: Today 23:44

All times are GMT + 3 Hours



You cannot post new topics in this forum
You cannot reply to topics in this forum
You cannot edit your posts in this forum
You cannot delete your posts in this forum
You cannot vote in polls in this forum
You cannot attach files in this forum
You cannot download files in this forum