Today is a free download without charge Download

Стукач / Snitch (Рик Роман Во) [2013 г., Боевик, Триллер, Драма, BDRemux 1080p] Дубляж + Оригинал

Reply to topic
 
Author
Message

Meshanik ®

Gender:

Longevity: 8 years 10 months

Posts: 3866

Location: Los Angeles

Торрент-статистика

Post 28-May-2013 23:50

[Quote]

Стукач / Snitch«Как далеко ты можешь зайти, чтобы спасти своего сына?»- Русское название: Стукач
Оригинальное название: Snitch
Год выпуска: 2012
Страна: США
Жанр: боевик, триллер, драма
Продолжительность: 01:51:52
Перевод: Дубляж [Оригинал]
Субтитры: Английские-Режиссёр: Рик Роман Во
Продюсер: Тобин Армруст, Александр Ив Бруннер, Гай Ист
В ролях: Дуэйн Джонсон, Барри Пеппер, Джон Бернтал, Сьюзен Сарандон, Майкл К. Уильямс, Рафи Гаврон, Мелина Канакаредес, Надин Веласкес, Бенджамин Брэтт, Лела Лорен-Описание:
Ради спасения сына, которому грозит срок за продажу наркотиков, отец идет на сделку с полицией. Он должен внедриться в самое сердце наркомафии.-Бюджет: $15 000 000
Сборы в США: $42 909 900
Сборы в России: $1 471 980
Зрители: 214.9 тыс., 183.9 тыс., 182.2 тыс.-Дата мировой премьеры: 21 февраля 2013
Дата российской премьеры: 21 февраля 2013, «Парадиз»
Дата выхода DVD релиза: 4 июня 2013, «Парадиз / Активижен»- -Качество: BDRemux 1080p
Формат: MKV
Видео кодек: MPEG4
Аудио кодек: AC3/DTS
Видео: MPEG4 20.2 mb/s, 1920x1080 23.976 fps
Аудио#1: Русский, AC3, 384 kb/s (6 ch) 48.0 KHz
Аудио#2: Английский, DTS-HD, 3283 Kb/s (6 ch) 48.0 KHz
-Релиз от:
-

MediaInfo...

General
Unique ID : 195993222264525344674565873688624533145 (0x9372EBEBB973C6C8809E0840EF7C8E99)
Complete name : Stukach.2013.D.BD-Remux.1080p.IRONCLUB.mkv
Format : Matroska
Format version : Version 2
File size : 18.6 GiB
Duration : 1h 51mn
Overall bit rate mode : Variable
Overall bit rate : 23.8 Mbps
Movie name : IRONCLUB
Encoded date : UTC 2013-05-28 14:55:00
Writing application : mkvmerge v5.2.0 ('I can't explain') built on Dec 18 2011 18:12:03
Writing library : libebml v1.2.3 + libmatroska v1.3.0
Video
ID : 1
Format : AVC
Format/Info : Advanced Video Codec
Format profile : [email protected]
Format settings, CABAC : Yes
Format settings, ReFrames : 3 frames
Codec ID : V_MPEG4/ISO/AVC
Duration : 1h 51mn
Bit rate mode : Variable
Bit rate : 21.4 Mbps
Nominal bit rate : 20.2 Mbps
Maximum bit rate : 38.0 Mbps
Width : 1 920 pixels
Height : 1 080 pixels
Display aspect ratio : 16:9
Frame rate : 23.976 fps
Color space : YUV
Chroma subsampling : 4:2:0
Bit depth : 8 bits
Scan type : Progressive
Bits/(Pixel*Frame) : 0.430
Stream size : 16.7 GiB (90%)
Title : Snitch 2013 1080p Blu-ray Remux AVC DTS-HD MA 5.1
Writing library : x264 core 129 r2245 bc13772
Encoding settings : cabac=1 / ref=4 / deblock=1:-1:-1 / analyse=0x3:0x133 / me=umh / subme=10 / psy=1 / psy_rd=1.00:0.15 / mixed_ref=1 / me_range=24 / chroma_me=1 / trellis=2 / 8x8dct=1 / cqm=0 / deadzone=21,11 / fast_pskip=1 / chroma_qp_offset=-3 / threads=48 / lookahead_threads=8 / sliced_threads=0 / slices=4 / nr=0 / decimate=1 / interlaced=0 / bluray_compat=1 / constrained_intra=0 / bframes=3 / b_pyramid=1 / b_adapt=2 / b_bias=0 / direct=3 / weightb=1 / open_gop=1 / weightp=1 / keyint=24 / keyint_min=1 / scenecut=40 / intra_refresh=0 / rc_lookahead=24 / rc=2pass / mbtree=1 / bitrate=20186 / ratetol=1.0 / qcomp=0.60 / qpmin=0 / qpmax=69 / qpstep=4 / cplxblur=20.0 / qblur=0.5 / vbv_maxrate=38000 / vbv_bufsize=30000 / nal_hrd=vbr / ip_ratio=1.40 / aq=1:1.00
Language : English
Default : Yes
Forced : Yes
Color primaries : BT.709-5, BT.1361, IEC 61966-2-4, SMPTE RP177
Transfer characteristics : BT.709-5, BT.1361
Matrix coefficients : BT.709-5, BT.1361, IEC 61966-2-4 709, SMPTE RP177
Audio #1
ID : 2
Format : AC-3
Format/Info : Audio Coding 3
Mode extension : CM (complete main)
Format settings, Endianness : Big
Codec ID : A_AC3
Duration : 1h 51mn
Bit rate mode : Constant
Bit rate : 384 Kbps
Channel(s) : 6 channels
Channel positions : Front: L C R, Side: L R, LFE
Sampling rate : 48.0 KHz
Bit depth : 16 bits
Compression mode : Lossy
Stream size : 307 MiB (2%)
Title : DD 5.1 @ 384 kbps - Dub, R5
Language : Russian
Default : Yes
Forced : Yes
Audio #2
ID : 3
Format : DTS
Format/Info : Digital Theater Systems
Format profile : MA / Core
Codec ID : A_DTS
Duration : 1h 51mn
Bit rate mode : Variable
Bit rate : 1 576 Kbps / 1 510 Kbps
Channel(s) : 6 channels
Channel positions : Front: L C R, Side: L R, LFE
Sampling rate : 48.0 KHz
Bit depth : 24 bits
Compression mode : Lossless / Lossy
Title : DTS-HD 5.1 @ 3283 kbps
Language : English
Default : No
Forced : No
Text
ID : 4
Format : UTF-8
Codec ID : S_TEXT/UTF8
Codec ID/Info : UTF-8 Plain Text
Language : English
Default : No
Forced : No
Menu
00:00:00.000 : en:00:00:00.000
00:06:18.086 : en:00:06:18.086
00:14:02.717 : en:00:14:02.717
00:21:29.747 : en:00:21:29.747
00:29:44.700 : en:00:29:44.700
00:34:28.984 : en:00:34:28.984
00:42:36.179 : en:00:42:36.179
00:49:18.831 : en:00:49:18.831
00:56:31.638 : en:00:56:31.638
01:00:53.108 : en:01:00:53.108
01:10:01.572 : en:01:10:01.572
01:18:55.272 : en:01:18:55.272
01:24:05.374 : en:01:24:05.374
01:31:21.559 : en:01:31:21.559
01:38:40.540 : en:01:38:40.540
01:45:56.600 : en:01:45:56.600
-Скриншоты-          -
Other forum [Profile] [PM]
Display posts from previous:    
Reply to topic

The time now is: Today 09:36

All times are GMT + 3 Hours



You cannot post new topics in this forum
You cannot reply to topics in this forum
You cannot edit your posts in this forum
You cannot delete your posts in this forum
You cannot vote in polls in this forum
You cannot attach files in this forum
You cannot download files in this forum