Today is a free download without charge Download

Страсть / Crush (Малик Бейдер / Malik Bader) [2013, США, триллер, BDRip 720p] VO (Xixidok) + Sub Eng + Original Eng

Reply to topic
 
Author
Message

Omen ®

Longevity: 8 years 5 months

Posts: 181087

Торрент-статистика

Post 28-May-2013 21:53

[Quote]

Страсть / Crush Страна: США
Студия: Intrepid Pictures
Жанр: триллер
Год выпуска: 2013
Продолжительность: 01:34:51
Перевод: Одноголосый закадровый Xixidok
Cубтитры: английские
Оригинальная аудиодорожка: английский
Режиссер: Малик Бейдер / Malik Bader
В ролях: Лукас Тилл, Сара Болджер, Кристал Рид, Мередит Сэленджер, Ли Уоннелл, Камилла Гуати, Майкл Лэндис, Никки СуХу, Рейд Юинг, Айзая Мустафа
Описание: Скромная, застенчивая девушка Бесс находит себе идеал в школе. Выбор пал на лучшего футболиста, покорителя всех девичьих сердец, Скотта. Бесс, не в силах противиться своей страсти, начинает преследовать своего кумира…


Тип релиза: BDRip 720p
Контейнер: MKV
Видео: MPEG-4 AVC Video 5958 kbps 720p / 23,976 fps / 16:9 / High Profile 4.1 / 0.270 bit/pixel
Аудио 1: Russian / Dolby Digital Audio / 2.0 / 48 kHz / 192 kbps |Xixidok|
Аудио 2: English / Dolby Digital Audio / 5.1 / 48 kHz / 640 kbps
Формат субтитров: softsub (SRT)

MediaInfo

Код:
Общее
Уникальный идентификатор                 : 227248060926538087654115687217373485742 (0xAAF66270D5ED8775BCC855981C719AAE)
Полное имя                               : Crush.2013.BDRip720p_[/*spam*/].mkv
Формат                                   : Matroska
Версия формата                           : Version 4 / Version 2
Размер файла                             : 4,50 Гбайт
Продолжительность                        : 1 ч. 34 м.
Общий поток                              : 6791 Кбит/сек
Название фильма                          : Crush.2013
Дата кодирования                         : UTC 2013-05-28 15:22:32
Программа кодирования                    : mkvmerge v6.1.0 ('Old Devil') built on Mar  2 2013 14:32:37
Библиотека кодирования                   : libebml v1.3.0 + libmatroska v1.4.0
Видео
Идентификатор                            : 1
Формат                                   : AVC
Формат/Информация                        : Advanced Video Codec
Профиль формата                          : [email protected]
Параметр CABAC формата                   : Да
Параметр ReFrames формата                : 8 кадров
Идентификатор кодека                     : V_MPEG4/ISO/AVC
Продолжительность                        : 1 ч. 34 м.
Битрейт                                  : 5958 Кбит/сек
Ширина                                   : 1280 пикселей
Высота                                   : 720 пикселей
Соотношение сторон                       : 16:9
Режим частоты кадров                     : Постоянный
Частота кадров                           : 23,976 кадра/сек
Цветовое пространство                    : YUV
Субдискретизация насыщенности            : 4:2:0
Битовая глубина                          : 8 бит
Тип развёртки                            : Прогрессивная
Бит/(Пиксели*Кадры)                      : 0.270
Размер потока                            : 3,86 Гбайт (86%)
Библиотека кодирования                   : x264 core 130 r2273 b3065e6
Настройки программы                      : cabac=1 / ref=8 / deblock=1:-2:-1 / analyse=0x3:0x133 / me=umh / subme=10 / psy=1 / psy_rd=1.00:0.10 / mixed_ref=1 / me_range=32 / chroma_me=1 / trellis=2 / 8x8dct=1 / cqm=0 / deadzone=21,11 / fast_pskip=0 / chroma_qp_offset=-3 / threads=6 / lookahead_threads=1 / sliced_threads=0 / nr=0 / decimate=1 / interlaced=0 / bluray_compat=0 / constrained_intra=0 / bframes=7 / b_pyramid=2 / b_adapt=2 / b_bias=0 / direct=3 / weightb=1 / open_gop=0 / weightp=2 / keyint=240 / keyint_min=23 / scenecut=40 / intra_refresh=0 / rc_lookahead=60 / rc=2pass / mbtree=1 / bitrate=5958 / ratetol=1.0 / qcomp=0.60 / qpmin=0 / qpmax=69 / qpstep=4 / cplxblur=20.0 / qblur=0.5 / ip_ratio=1.40 / aq=2:0.90
Default                                  : Да
Forced                                   : Нет
Аудио #1
Идентификатор                            : 2
Формат                                   : AC-3
Формат/Информация                        : Audio Coding 3
Расширение режима                        : CM (complete main)
Параметр Endianness формата              : Big
Идентификатор кодека                     : A_AC3
Продолжительность                        : 1 ч. 34 м.
Вид битрейта                             : Постоянный
Битрейт                                  : 192 Кбит/сек
Каналы                                   : 2 канала
Расположение каналов                     : Front: L R
Частота                                  : 48,0 КГц
Битовая глубина                          : 16 бит
Метод сжатия                             : С потерями
Размер потока                            : 130 Мбайт (3%)
Заголовок                                : Одноголосый закадровый [Xixidok]
Язык                                     : Russian
Default                                  : Да
Forced                                   : Нет
Аудио #2
Идентификатор                            : 3
Формат                                   : AC-3
Формат/Информация                        : Audio Coding 3
Расширение режима                        : CM (complete main)
Параметр Endianness формата              : Big
Идентификатор кодека                     : A_AC3
Продолжительность                        : 1 ч. 34 м.
Вид битрейта                             : Постоянный
Битрейт                                  : 640 Кбит/сек
Каналы                                   : 6 каналов
Расположение каналов                     : Front: L C R, Side: L R, LFE
Частота                                  : 48,0 КГц
Битовая глубина                          : 16 бит
Метод сжатия                             : С потерями
Размер потока                            : 434 Мбайт (9%)
Язык                                     : English
Default                                  : Нет
Forced                                   : Нет
Текст
Идентификатор                            : 4
Формат                                   : UTF-8
Идентификатор кодека                     : S_TEXT/UTF8
Идентификатор кодека/Информация          : UTF-8 Plain Text
Язык                                     : English
Default                                  : Нет
Forced                                   : Нет
Меню
00:00:00.000                             : :Chapter 01
00:08:55.326                             : :Chapter 02
00:16:25.985                             : :Chapter 03
00:24:31.553                             : :Chapter 04
00:32:20.981                             : :Chapter 05
00:42:06.482                             : :Chapter 06
00:49:13.325                             : :Chapter 07
00:56:01.525                             : :Chapter 08
01:03:18.878                             : :Chapter 09
01:12:36.769                             : :Chapter 10
01:20:16.478                             : :Chapter 11
01:29:03.922                             : :Chapter 12

Скриншоты


Other forum [Profile] [PM]

Dracula

Longevity: 7 years 6 months

Posts: 11225

Торрент-статистика

Post 29-May-2013 07:41 (after 9 hours)

Топик был перенесен из форума Зарубежное кино (HD Video) в форум Новинки (DVD, HD Video)


RUGUI
 

Dracula

Longevity: 7 years 6 months

Posts: 11225

Торрент-статистика

Post 02-Jan-2014 15:52 (after 7 months 4 days)

Топик был перенесен из форума Новинки (DVD, HD Video) в форум Зарубежное кино (HD Video)


kogesan
 
Similar theme
Forum Topic Author Torrent Replies Last Post
./templates/default/images/folder_dl.gif Техническая и научно-популярная литература Е.А.Рудометов, В.Е.Рудометов | Шпионские страсти. Электронные устройства двойного применения [2000] [DJVU] UndegraundMen
1 | 0

0 | 599

3

2013-06-26 03:12
UndegraundMen Latest
Display posts from previous:    
Reply to topic

The time now is: Today 10:30

All times are GMT + 3 Hours



You cannot post new topics in this forum
You cannot reply to topics in this forum
You cannot edit your posts in this forum
You cannot delete your posts in this forum
You cannot vote in polls in this forum
You cannot attach files in this forum
You cannot download files in this forum