Today is a free download without charge Download

Linkin Park - New Divide, What I've Done (Cut broadcast) (on Jimmy Kimmel Live) [2009, Alternative Rock, HDTV 720p]

Reply to topic
 
Author
Message

Omen ®

Longevity: 8 years 3 months

Posts: 181087

Торрент-статистика

Post 28-May-2013 21:53

[Quote]

Linkin Park on Jimmy Kimmel Live (22.06.09)
Жанр: Alternative Rock
Продолжительность: 5m:41s
Год выпуска: 2009
Описание:
June 22, 2009
Westwood, CA, USA
Jimmy Kimmel Live / Transformers 2 Premiere

Треклист:
01. New Divide
02. What I've Done (Cut broadcast)
Качество: HDTV 720p
Контейнер: TS
Видео кодек: MPEG2
Видео: 1280x720 | 13.5 Mbps | 59.940 fps
Аудио: AC-3 | 192 Kbps | 2ch | 48.0 KHz

Отчёт MediaInfo / BDInfo

GeneralID : 1 (0x1)Complete name : Linkin Park (Jimmy Kimmel Live 2009) 720p.tsFormat : MPEG-TSFile size : 586 MiBDuration : 5mn 41sOverall bit rate mode : VariableOverall bit rate : 14.4 Mbps
VideoID : 33 (0x21)Menu ID : 1 (0x1)Format : MPEG VideoCommercial name : HDV 720pFormat version : Version 2Format profile : [email protected] settings, BVOP : YesFormat settings, Matrix : CustomFormat settings, GOP : M=3, N=30Codec ID : 2Duration : 5mn 41sBit rate mode : VariableBit rate : 13.5 MbpsMaximum bit rate : 13.8 MbpsWidth : 1 280 pixelsHeight : 720 pixelsDisplay aspect ratio : 16:9Frame rate : 59.940 fpsStandard : ComponentColor space : YUVChroma subsampling : 4:2:0Bit depth : 8 bitsScan type : ProgressiveCompression mode : LossyBits/(Pixel*Frame) : 0.244Time code of first frame : 00:00:00:00Time code source : Group of pictures headerStream size : 549 MiB (94%)
AudioID : 36 (0x24)Menu ID : 1 (0x1)Format : AC-3Format/Info : Audio Coding 3Mode extension : CM (complete main)Format settings, Endianness : BigCodec ID : 129Duration : 5mn 41sBit rate mode : ConstantBit rate : 192 KbpsChannel(s) : 2 channelsChannel positions : Front: L RSampling rate : 48.0 KHzBit depth : 16 bitsCompression mode : LossyStream size : 7.82 MiB (1%)
TextID : 33 (0x21)-5Menu ID : 1 (0x1)Format : EIA-708Muxing mode : A/53 / DTVCC TransportMuxing mode, more info : Muxed in Video #1Duration : 5mn 41sBit rate mode : ConstantStream size : 0.00 Byte (0%)

Скриншоты

Other forum [Profile] [PM]
Display posts from previous:    
Reply to topic

The time now is: Today 10:31

All times are GMT + 3 Hours



You cannot post new topics in this forum
You cannot reply to topics in this forum
You cannot edit your posts in this forum
You cannot delete your posts in this forum
You cannot vote in polls in this forum
You cannot attach files in this forum
You cannot download files in this forum