Today is a free download without charge Download

Мрачные небеса / Dark Skies (Скотт Чарльз Стюарт / Scott Charles Stewart) [2013, ужасы, фантастика, триллер, BDRemux 1080p] Dub + Original (eng) + Sub (eng)

Reply to topic
 
Author
Message

Omen ®

Longevity: 8 years 5 months

Posts: 181087

Торрент-статистика

Post 28-May-2013 17:49

[Quote]

Мрачные небеса : Dark Skies«Если тебя выбрали, уже не скрыться» Страна: США
Год выпуска: 2013
Жанр: ужасы, фантастика, триллер,
Продолжительность: 01:37:08
Перевод: Профессиональный (полное дублирование) [лицензия]
Оригинальная дорожка: Английская
Субтитры: английские-Режиссёр: Скотт Чарльз Стюарт : Scott Charles Stewart-В главных ролях: Кери Расселл, Джош Хэмилтон, Дакота Гойо, Дж.К. Симмонс, Энни Турман, Майкл Патрик МакГилл, Тревор Ст. Джон, Аливия Элин Линд, Л. Бенет, Джейк Уошберн-Описание: Странные вещи начинают происходить в обычной семье жителей пригорода. Электронные приборы без причины отключаются. Дети повсюду находят мертвых птиц.
В их дом проникают инопланетные существа, которые по какой то причине следят за семьей. Чем больше странных, мистических вещей начинает происходить в доме, тем быстрее становится ясно: загадочные существа, прилетевшие с другой планеты в поисках новой жизни, охотятся на детей, живущих там.- -Качество: BDRemux 1080p
Формат: MKV
Видео кодек: AVC
Аудио кодек: АС3 : DTS MA
Видео: 1920x1080, 23.976 fps, ~23,8 Мbps avg, 0.480 bit/pixel
Аудио #1: 48 kHz, AC3 Dolby Digital, 3/2 (L,C,R,l,r) + LFE ch, ~448 kbps
Аудио #2: 5.1 / 48 kHz / 3564 kbps / 24-bit (DTS Core: 5.1 / 48 kHz / 1509 kbps / 24-bit / DN -4dB)
Формат субтитров: softsub (SRT)
навигация по главам: 18 глав

скриншоты

MediaInfo

Общее
Уникальный идентификатор : 226525632435719703582799417574518574093 (0xAA6B3FF758149E6E93DC99AEBA1A4C0D)
Полное имя : D:\Im\Мрачные небеса\Dark Skies.2013.BDRemux 1080p.mkv
Формат : Matroska
Версия формата : Version 4 / Version 2
Размер файла : 17,9 Гбайт
Продолжительность : 1 ч. 37 м.
Режим общего битрейта : Переменный
Общий поток : 26,4 Мбит/сек
Дата кодирования : UTC 2013-05-28 12:52:51
Программа кодирования : mkvmerge v6.1.0 ('Old Devil') built on Mar 2 2013 14:32:37
Библиотека кодирования : libebml v1.3.0 + libmatroska v1.4.0
Видео
Идентификатор : 1
Формат : AVC
Формат/Информация : Advanced Video Codec
Профиль формата : [email protected]
Параметр CABAC формата : Да
Параметр ReFrames формата : 2 кадра
Параметр GOP формата : M=1, N=10
Идентификатор кодека : V_MPEG4/ISO/AVC
Продолжительность : 1 ч. 37 м.
Вид битрейта : Переменный
Битрейт : 23,8 Мбит/сек
Ширина : 1920 пикселей
Высота : 1080 пикселей
Соотношение сторон : 16:9
Частота кадров : 23,976 кадра/сек
Цветовое пространство : YUV
Субдискретизация насыщенности : 4:2:0
Битовая глубина : 8 бит
Тип развёртки : Прогрессивная
Бит/(Пиксели*Кадры) : 0.480
Размер потока : 16,2 Гбайт (90%)
Язык : English
Default : Да
Forced : Нет
Аудио #1
Идентификатор : 2
Формат : AC-3
Формат/Информация : Audio Coding 3
Расширение режима : CM (complete main)
Идентификатор кодека : A_AC3
Продолжительность : 1 ч. 37 м.
Вид битрейта : Постоянный
Битрейт : 448 Кбит/сек
Каналы : 6 каналов
Расположение каналов : Front: L C R, Side: L R, LFE
Частота : 48,0 КГц
Битовая глубина : 16 бит
Метод сжатия : С потерями
Размер потока : 311 Мбайт (2%)
Заголовок : DUB
Язык : Russian
Default : Да
Forced : Нет
Аудио #2
Идентификатор : 3
Формат : DTS
Формат/Информация : Digital Theater Systems
Профиль формата : MA / Core
Идентификатор кодека : A_DTS
Продолжительность : 1 ч. 37 м.
Вид битрейта : Переменный
Битрейт : 3564 Кбит/сек / 1510 Кбит/сек
Каналы : 6 каналов
Расположение каналов : Front: L C R, Side: L R, LFE
Частота : 48,0 КГц
Битовая глубина : 24 бит
Метод сжатия : Без потерь / Lossy
Заголовок : ENG
Язык : English
Default : Нет
Forced : Нет
Текст
Идентификатор : 4
Формат : UTF-8
Идентификатор кодека : S_TEXT/UTF8
Идентификатор кодека/Информация : UTF-8 Plain Text
Заголовок : Eng Sub [SDH]
Язык : English
Default : Да
Forced : Нет
Меню
00:00:00.000 : en:00:00:00.000
00:04:21.470 : en:00:04:21.470
00:08:22.210 : en:00:08:22.210
00:14:43.716 : en:00:14:43.716
00:18:52.131 : en:00:18:52.131
00:24:34.014 : en:00:24:34.014
00:29:52.916 : en:00:29:52.916
00:36:28.144 : en:00:36:28.144
00:40:32.430 : en:00:40:32.430
00:45:40.404 : en:00:45:40.404
00:52:14.548 : en:00:52:14.548
00:59:41.244 : en:00:59:41.244
01:05:08.196 : en:01:05:08.196
01:11:59.482 : en:01:11:59.482
01:17:07.248 : en:01:17:07.248
01:22:48.172 : en:01:22:48.172
01:29:07.050 : en:01:29:07.050
01:33:03.244 : en:01:33:03.244
Не забываем оставлять комментарии к релизу, мне интересно Ваше мнение!
Other forum [Profile] [PM]

Dracula

Longevity: 7 years 6 months

Posts: 11221

Торрент-статистика

Post 29-May-2013 07:46 (after 13 hours)

Топик был перенесен из форума Зарубежное кино (HD Video) в форум Зарубежное кино


RUGUI
 
Display posts from previous:    
Reply to topic

The time now is: Today 04:58

All times are GMT + 3 Hours



You cannot post new topics in this forum
You cannot reply to topics in this forum
You cannot edit your posts in this forum
You cannot delete your posts in this forum
You cannot vote in polls in this forum
You cannot attach files in this forum
You cannot download files in this forum