Today is a free download without charge Download

Ребята с нашего двора (Антонина Зиновьева)[1973,Телеспектакль] TVRip

Reply to topic
 
Author
Message

sashau ®

Gender:

Longevity: 9 years 6 months

Posts: 3497

Торрент-статистика

Post 28-May-2013 16:46

[Quote]

Ребята с нашего двора - Русское название: Ребята с нашего двора
Год выпуска: 1973
Жанр: Телеспектакль
Производство: Телестудия "Орлёнок" / Центральное телевидение
Автор: Эдуард Шим
Режиссер: Антонина Зиновьева
Художники: Игорь Зеленский, Валерий Вейцлер
Композитор: Марк Минков
Описание фильма:
"Ребята с нашего двора" - это несколько историй о современных мальчишках и девчонках, чья жизнь наполнена приключениями и романтикой. Телеспектакль состоит из 8 историй.
1. "Полосатый мяч"
2. "Четырехзначный номер"
3. "Маленькая книжка"
4."Контрамарка на двоих"
5. "Подарок миллионеру"
6. "Черный камешек"
7. "Заколоченный дом"
8. "Вторая попытка"
Режиссер: Антонина Зиновьева
Актеры:
Вера - Лена Сальникова
Павлик - Саша Горичев
Сережа - Андрей Егорин
Лена - Лена Шиманская
Жека - Дима Портной
Коля - Коля Жаворонков
Маринка - Марина Шик
Алексей - Евгений Меньшов
Дед - Сергей Бобров
Продавщица - Ольга Науменко
Николай Николаевич - Юрий Катин-Ярцев
Тетя Дуся - Антонина Дмитриева
Мать Жеки - Валентина Смелкова
Аркадий Антонович - Николай Волков
Миллионер - Александр Вокач
Старшина - Николай Алексеев
Майор - Юрий Ильчук
Интеллигентный мальчик - Павел Котов
Профессор - Исаак Кастрель
Нянечка - Екатерина Калинина
Шофер - Владимир Щеглов
Студент - Александр Котов
Бородатый - Виктор Васильев
Продолжительность: 04:12:14
Видеокодек: XviD
Битрейт видео: ~1500 кбит/с
Размер кадра: 720 x 544
Качество видео: TVRip
Аудиокодек: MP3 2.0
Битрейт аудио: 128 кбит/с

MediaInfo

Общее
Полное имя : \Ребята с нашего двора.1973\Ребята с нашего двора - Серия 6 - Черный камешек (1973).avi
Формат : AVI
Формат/Информация : Audio Video Interleave
Размер файла : 355 Мбайт
Продолжительность : 30 м.
Общий поток : 1635 Кбит/сек
Программа кодирования : VirtualDubModRus 1.5.10.2 (build 2542/release)
Библиотека кодирования : VirtualDub build 32842/release
Видео
Идентификатор : 0
Формат : MPEG-4 Visual
Профиль формата : Advanced [email protected]
Параметр BVOP формата : 2
Параметр QPel формата : Нет
Параметр GMC формата : Без точки перехода
Параметр матрицы формата : Default (MPEG)
Режим смешивания : Сжатый битовый поток
Идентификатор кодека : XVID
Идентификатор кодека/Подсказка : XviD
Продолжительность : 30 м.
Битрейт : 1498 Кбит/сек
Ширина : 720 пикселей
Высота : 544 пикселя
Соотношение сторон : 4:3
Частота кадров : 25,000 кадров/сек
Цветовое пространство : YUV
Субдискретизация насыщенности : 4:2:0
Битовая глубина : 8 бит
Тип развёртки : Прогрессивная
Метод сжатия : С потерями
Бит/(Пиксели*Кадры) : 0.153
Размер потока : 325 Мбайт (92%)
Библиотека кодирования : XviD 1.2.1 (UTC 2008-12-04)
Аудио
Идентификатор : 1
Формат : MPEG Audio
Версия формата : Version 1
Профиль формата : Layer 3
Идентификатор кодека : 55
Идентификатор кодека/Подсказка : MP3
Продолжительность : 30 м.
Вид битрейта : Постоянный
Битрейт : 128 Кбит/сек
Каналы : 2 канала
Частота : 48,0 КГц
Метод сжатия : С потерями
Размер потока : 27,8 Мбайт (8%)
Выравнивание : Соединение по промежуткам
Продолжительность промежутка : 40 мс. (1,00 видеокадр)
Время предзагрузки промежутка : 504 мс.
Библиотека кодирования : LAME3.99r
Настройки программы : -m s -V 4 -q 5 -lowpass 17 -b 128
Кадры:          
Other forum [Profile] [PM]
Display posts from previous:    
Reply to topic

The time now is: Today 12:35

All times are GMT + 3 Hours



You cannot post new topics in this forum
You cannot reply to topics in this forum
You cannot edit your posts in this forum
You cannot delete your posts in this forum
You cannot vote in polls in this forum
You cannot attach files in this forum
You cannot download files in this forum