Today is a free download without charge Download

Клин клином / Fire with Fire (Дэвид Баррет) (Боевик, триллер, драма, криминал, 2012) BDRip [1080p]

Reply to topic
 
Author
Message

Omen ®

Longevity: 8 years 5 months

Posts: 181087

Торрент-статистика

Post 28-May-2013 16:06

[Quote]

Клин клином / Fire with Fire- Русское название: Клин клином
Оригинальное название: Fire with Fire
Год выпуска: 2012
Производство: США / Cheetah Vision, Emmett/Furla Films, Envision Entertainment Corporation
Жанр: Боевик, Триллер, Криминал
Перевод: Многоголосый закадровый, профессиональный (лицензия)
Субтитры: Английские (Full, SDH)
Вид субтитров: Вшитые отключаемые-Дата мировой премьеры: 31 августа 2012
Дата российской премьеры: 11 апреля 2013, «Top Film Distribution»
Дата выхода DVD релиза: 28 мая 2013, «Lizard Cinema Trade»-Режиссер: Дэвид Баррет
Продюсер: Фифти Сент, Эндрю Дин, Рэндолл Эмметт
Актеры: Джош Дюамель, Розарио Доусон, Брюс Уиллис, Винсент Д’Онофрио, Фифти Сент, Ричард Шифф, Винни Джонс, Джеймс Лежер, Куинтон Джексон, Эри Вервин-Описание фильма:
Главный герой — пожарный, попадающий в программу защиты свидетелей. Когда же человек, против которого он должен давать показания, угрожает ему, герой вынужден взять правосудие в свои руки, чтобы спасти любимую женщину.- -Продолжительность: 01:37:31
Качество видео: BDRip-Видеокодек: MPEG-4 AVC/H.264
Битрейт видео: ~12 Мбит/с
Размер кадра: 1920x804
Аудио#1: Русский - AC3, 448 Кбит/с (6 ch)
Аудио#2: Английский - DTS, 1510 Кбит/с (6 ch)

MediaInfo

Общее
Уникальный идентификатор : 243885074163676238011721995203037237088 (0xB77A8E85FE924B529707B83A5C9E0F60)
Полное имя : D:\Торрент раздача\Klin.klinom.2012.P.BDRip.1080p.mkv
Формат : Matroska
Версия формата : Version 2
Размер файла : 9,51 Гбайт
Продолжительность : 1 ч. 37 м.
Общий поток : 14,0 Мбит/сек
Название фильма : Fire with Fire (2012) BDRip
Дата кодирования : UTC 2013-05-23 16:33:45
Программа кодирования : mkvmerge v5.2.0 ('I can't explain') built on Dec 18 2011 18:12:03
Библиотека кодирования : libebml v1.2.3 + libmatroska v1.3.0
Видео
Идентификатор : 1
Формат : AVC
Формат/Информация : Advanced Video Codec
Профиль формата : [url=mailto:[email protected]][email protected][/url]
Параметр CABAC формата : Да
Параметр ReFrames формата : 5 кадров
Идентификатор кодека : V_MPEG4/ISO/AVC
Продолжительность : 1 ч. 37 м.
Битрейт : 12,0 Мбит/сек
Ширина : 1920 пикселей
Высота : 804 пикселя
Соотношение сторон : 2,40:1
Режим частоты кадров : Постоянный
Частота кадров : 23,976 кадра/сек
Цветовое пространство : YUV
Субдискретизация насыщенности : 4:2:0
Битовая глубина : 8 бит
Тип развёртки : Прогрессивная
Бит/(Пиксели*Кадры) : 0.324
Размер потока : 7,99 Гбайт (84%)
Заголовок : Fire.with.Fire.2012.1080p.BluRay.DTS.x264-HDMaNiAcS
Библиотека кодирования : x264 core 128 r2216 198a7ea
Настройки программы : cabac=1 / ref=5 / deblock=1:-3:-3 / analyse=0x3:0x113 / me=tesa / subme=11 / psy=1 / psy_rd=1.05:0.00 / mixed_ref=1 / me_range=24 / chroma_me=1 / trellis=2 / 8x8dct=1 / cqm=0 / deadzone=21,11 / fast_pskip=1 / chroma_qp_offset=-2 / threads=12 / lookahead_threads=2 / sliced_threads=0 / nr=0 / decimate=1 / interlaced=0 / bluray_compat=0 / constrained_intra=0 / bframes=8 / b_pyramid=2 / b_adapt=2 / b_bias=0 / direct=3 / weightb=1 / open_gop=0 / weightp=2 / keyint=240 / keyint_min=23 / scenecut=40 / intra_refresh=0 / rc_lookahead=90 / rc=2pass / mbtree=1 / bitrate=12000 / ratetol=1.0 / qcomp=0.65 / qpmin=10 / qpmax=69 / qpstep=4 / cplxblur=20.0 / qblur=0.5 / ip_ratio=1.40 / aq=2:0.85
Язык : English
Default : Да
Forced : Да
Аудио #1
Идентификатор : 2
Формат : AC-3
Формат/Информация : Audio Coding 3
Расширение режима : CM (complete main)
Параметр Endianness формата : Big
Идентификатор кодека : A_AC3
Продолжительность : 1 ч. 37 м.
Вид битрейта : Постоянный
Битрейт : 448 Кбит/сек
Каналы : 6 каналов
Расположение каналов : Front: L C R, Side: L R, LFE
Частота : 48,0 КГц
Битовая глубина : 16 бит
Метод сжатия : С потерями
Размер потока : 313 Мбайт (3%)
Заголовок : DD 5.1 @ 448 kbps - MVO, R5
Язык : Russian
Default : Да
Forced : Да
Аудио #2
Идентификатор : 3
Формат : DTS
Формат/Информация : Digital Theater Systems
Режим : 16
Параметр Endianness формата : Big
Идентификатор кодека : A_DTS
Продолжительность : 1 ч. 37 м.
Вид битрейта : Постоянный
Битрейт : 1509 Кбит/сек
Каналы : 6 каналов
Расположение каналов : Front: L C R, Side: L R, LFE
Частота : 48,0 КГц
Битовая глубина : 24 бит
Метод сжатия : С потерями
Размер потока : 1,03 Гбайт (11%)
Заголовок : DTS 5.1 @ 1536 kbps
Язык : English
Default : Нет
Forced : Нет
Текст #1
Идентификатор : 4
Формат : UTF-8
Идентификатор кодека : S_TEXT/UTF8
Идентификатор кодека/Информация : UTF-8 Plain Text
Язык : English
Default : Нет
Forced : Нет
Текст #2
Идентификатор : 5
Формат : UTF-8
Идентификатор кодека : S_TEXT/UTF8
Идентификатор кодека/Информация : UTF-8 Plain Text
Заголовок : SDH
Язык : English
Default : Нет
Forced : Нет
Меню
00:00:00.000 : en:00:00:00.000
00:03:36.091 : en:00:03:36.091
00:08:34.013 : en:00:08:34.013
00:16:14.765 : en:00:16:14.765
00:20:42.283 : en:00:20:42.283
00:26:58.242 : en:00:26:58.242
00:31:47.614 : en:00:31:47.614
00:38:16.419 : en:00:38:16.419
00:41:43.710 : en:00:41:43.710
00:45:02.783 : en:00:45:02.783
00:49:18.622 : en:00:49:18.622
00:56:32.180 : en:00:56:32.180
01:00:33.046 : en:01:00:33.046
01:05:14.119 : en:01:05:14.119
01:12:39.188 : en:01:12:39.188
01:23:30.339 : en:01:23:30.339
Скриншоты:
         
         
Other forum [Profile] [PM]
Display posts from previous:    
Reply to topic

The time now is: Today 01:47

All times are GMT + 3 Hours



You cannot post new topics in this forum
You cannot reply to topics in this forum
You cannot edit your posts in this forum
You cannot delete your posts in this forum
You cannot vote in polls in this forum
You cannot attach files in this forum
You cannot download files in this forum