Today is a free download without charge Download

Кон-Тики / Kon-Tiki (Хоаким Роннинг, Эспен Сандберг) [Приключения, Биография, История, 2012] BDRip [1080p]

Reply to topic
 
Author
Message

Omen ®

Longevity: 8 years 5 months

Posts: 181087

Торрент-статистика

Post 28-May-2013 16:03

[Quote]

Кон-Тики / Kon-Tiki - «Через океан в поисках истины»- Русское название: Кон-Тики
Оригинальное название: Kon-Tiki
Год выпуска: 2012
Производство: Великобритания, Норвегия, Дания, Германия / DCM Productions, Film i Väst, Nordisk Film Production, Recorded Picture Company (RPC), Roenbergfilm
Жанр: Приключения, Биография, История-Описание фильма:
Приключенческая картина, в основе которой лежит подвиг всемирно известного путешественника Тура Хейердала, совершившего в 1947 году эпическую экспедицию — пересечение Тихого океана на маленьком шатком плотике Кон-Тики. Гигантские киты, схватки с голодными акулами, грозовой шторм, раздирающий ветер, битва за жизнь посреди бушующей стихии…. Героям предстоит проявить немалую силу и трудолюбие, чтобы этот день не стал последним. Это невероятное путешествие навсегда изменит людей, которые рискнули в него отправиться.-Режиссер: Хоаким Роннинг, Эспен Сандберг
Актеры: Пал Сверре Валхейм Хэйген, Андерс Баасмо Кристиансен, Густаф Скарсгард, Одд Магнус Уильямсон, Тобиас Зантелман, Якоб Офтебро, Агнес Киттелсен, Томас Арнольд, Йорген Бертаге, Элинор Бурк, Мануэль Коши, Сэм Чэпман, Стефан Кронуолл, Катинка Эгрес, Йен Кнауэр, Оле Слетнер, Ричард Триндер-Продолжительность: 01:49:51
Перевод: Дублированный (лицензия)- -Дата мировой премьеры: 18 августа 2012
Дата российской премьеры: 18 апреля 2013, «Люксор»
Дата выхода DVD релиза: 27 мая 2013, «Новый Диск»-Видеокодек: MPEG-4 AVC/H.264
Битрейт видео: ~8916 Кбит/с
Размер кадра: 1920x804
Качество видео: BDRip
Аудиокодек: AC3 5.1
Битрейт аудио: 640 Кбит/с

MediaInfo

Общее
Уникальный идентификатор : 245085328848697516157119493188923760618 (0xB861B7A5F399D61CBD12DAEE52B51FEA)
Полное имя : D:\Торрент раздача\Kon-Tiki.2012.BDRip.(1080p).mkv
Формат : Matroska
Версия формата : Version 2
Размер файла : 7,29 Гбайт
Продолжительность : 1 ч. 49 м.
Общий поток : 9557 Кбит/сек
Название фильма : Кон-Тики (MediaClub-kaspr)
Дата кодирования : UTC 2013-05-23 17:03:48
Программа кодирования : mkvmerge v5.7.0 ('The Whirlwind') built on Aug 7 2012 14:11:40
Библиотека кодирования : libebml v1.2.3 + libmatroska v1.3.0
Видео
Идентификатор : 1
Формат : AVC
Формат/Информация : Advanced Video Codec
Профиль формата : [url=mailto:[email protected]][email protected][/url]
Параметр CABAC формата : Да
Параметр ReFrames формата : 5 кадров
Идентификатор кодека : V_MPEG4/ISO/AVC
Продолжительность : 1 ч. 49 м.
Битрейт : 8916 Кбит/сек
Ширина : 1920 пикселей
Высота : 804 пикселя
Соотношение сторон : 2,40:1
Режим частоты кадров : Постоянный
Частота кадров : 25,000 кадров/сек
Цветовое пространство : YUV
Субдискретизация насыщенности : 4:2:0
Битовая глубина : 8 бит
Тип развёртки : Прогрессивная
Бит/(Пиксели*Кадры) : 0.231
Размер потока : 6,66 Гбайт (91%)
Заголовок : Кон-Тики (MediaClub-kaspr)
Библиотека кодирования : x264 core 130 r2273 b3065e6
Настройки программы : cabac=1 / ref=5 / deblock=1:-3:-3 / analyse=0x3:0x133 / me=umh / subme=11 / psy=1 / psy_rd=1.00:0.10 / mixed_ref=1 / me_range=32 / chroma_me=1 / trellis=2 / 8x8dct=1 / cqm=0 / deadzone=21,11 / fast_pskip=0 / chroma_qp_offset=-3 / threads=12 / lookahead_threads=1 / sliced_threads=0 / nr=0 / decimate=0 / interlaced=0 / bluray_compat=0 / constrained_intra=0 / bframes=6 / b_pyramid=2 / b_adapt=2 / b_bias=0 / direct=3 / weightb=1 / open_gop=0 / weightp=2 / keyint=250 / keyint_min=23 / scenecut=40 / intra_refresh=0 / rc=2pass / mbtree=0 / bitrate=8916 / ratetol=1.0 / qcomp=0.60 / qpmin=0 / qpmax=69 / qpstep=4 / cplxblur=20.0 / qblur=0.5 / ip_ratio=1.40 / pb_ratio=1.30 / aq=1:1.00
Default : Да
Forced : Нет
Аудио
Идентификатор : 2
Формат : AC-3
Формат/Информация : Audio Coding 3
Расширение режима : CM (complete main)
Параметр Endianness формата : Big
Идентификатор кодека : A_AC3
Продолжительность : 1 ч. 49 м.
Вид битрейта : Постоянный
Битрейт : 640 Кбит/сек
Каналы : 6 каналов
Расположение каналов : Front: L C R, Side: L R, LFE
Частота : 48,0 КГц
Битовая глубина : 16 бит
Метод сжатия : С потерями
Размер потока : 500 Мбайт (7%)
Заголовок : Дубляж
Язык : Russian
Default : Да
Forced : Да
Меню
00:00:00.000 : en:Chapter 01
00:00:40.000 : en:Chapter 02
00:01:37.840 : en:Chapter 03
00:12:42.640 : en:Chapter 04
00:27:36.120 : en:Chapter 05
00:44:12.320 : en:Chapter 06
00:57:04.200 : en:Chapter 07
01:09:49.080 : en:Chapter 08
01:21:06.280 : en:Chapter 09
01:33:56.760 : en:Chapter 10
Скриншоты:
         
         
Other forum [Profile] [PM]
Display posts from previous:    
Reply to topic

The time now is: Today 02:04

All times are GMT + 3 Hours



You cannot post new topics in this forum
You cannot reply to topics in this forum
You cannot edit your posts in this forum
You cannot delete your posts in this forum
You cannot vote in polls in this forum
You cannot attach files in this forum
You cannot download files in this forum