Today is a free download without charge Download

Дети шпионов: Трилогия / Spy Kids: Trilogy (Роберт Родригес / Robert Rodriguez) [2001, 2002, 2003, США, Фантастика, боевик, комедия, приключения, семейный,Blu-Ray (1080p))

Reply to topic
 
Author
Message

nsa1977 ®

Gender:

Longevity: 9 years 4 months

Posts: 1470

Location: Пенза

Торрент-статистика

Post 06-Aug-2011 14:58

[Quote]

Дети шпионов: Трилогия / Spy Kids: Trilogy Дети шпионов / Spy Kids
Страна: США
Студия: Lionsgate Films
Жанр: Фантастика, боевик, комедия, приключения, семейный
Год выпуска: 2001
Продолжительность: 01:30:50-Перевод: Профессиональный (дублированный)
Перевод (2): Профессиональный (многоголосый закадровый)
Оригинальная аудиодорожка: английский-Режиссер: Роберт Родригес / Robert Rodriguez-В ролях: Антонио Бандерас, Карла Гуджино, Алекса Вега, Дэрил Сабара, Алан Камминг, Тони Шэлуб, Тери Хэтчер, Чич Марин, Роберт Патрик, Дэнни Трехо-Описание: Два самых крутых шпиона в мире: Грегорио Кортес и Ингрид, имели одно и то же секретное задание - уничтожить друг друга. Но личная встреча не принесла им ничего хорошего: они поженились и завязали со своим ремеслом... Через несколько лет исчезновение семерых спецагентов вынуждает их снова вернуться в игру. Причиной послужило то, что их бывшие коллеги, самые крутые профессионалы, начали исчезать один за другим.
Кортесы вновь нужны агентству, которое хочет, чтобы они раскрыли секреты некоего Пальчика, формирующего армию из детей-роботов. Участь исчезновения постигает и супругов Кортесов, их похищает коварный злодей. Теперь судьба пленников зависит от того, смогут ли их дети правильно распорядиться всеми новейшими сверхсекретными шпионскими штучками из арсенала легендарных родителей.-Меню: Есть
Тип релиза: Blu-ray disc (custom)
Контейнер: BDMV-Видео: 1920x1080p / MPEG-4 AVC / 23,976 fps / 16:9 / ~ 22206 kbps
Аудио: DTS-HD Master Audio / English / 5.1 / 48 kHz / 4223 kbps / 24-bit (DTS Core: 5.1 / 48 kHz / 1509 kbps / 24-bit)
Аудио 2: Dolby Digital Audio / Russian / 5.1 / 48 kHz / 448 kbps / DN -4dB (DUB)
Аудио 3: Dolby Digital Audio / Russian / 5.1 / 48 kHz / 384 kbps / DN -4dB (MVO)
Аудио 4: Dolby Digital Audio / Ukrainian / 2.0 / 48 kHz / 192 kbps / DN -4dB (MVO - Новый Канал)
Cубтитры: English (SDH), English (Full), Russian (SDH), Russian (Full), Russian (Forced на сцену без перевода)
Формат субтитров: prerendered (Blu-ray/PGS/SUP)

*

Версия этой части вышедшая на Blu-ray оказалась немного иной, по сравнению с теми версиями которые выпускались на DVD, транслировались по ТВ, вещались по радио и еще бог знает где засветились. В ней присутствует сцена (00:59:46-01:02:42, "Эпизод с акулами") на которую перевода нет, только оригинал! Поэтому были созданы форсированные субтитры на не переведенную сцену, для более-менее комфортного просмотра. Выбор субтитров доступен с меню диска.

На диске

На диске:
  • Growing Up Spy Kids (HD; 48:10):
    Is a two part retrospective looking back at all three Spy Kids films. Featuring lots of interviews with Rodriguez and the principal cast, this doesn't just focus on the kids, as might be inferred from the title, but instead looks at the entire concept, and includes some great clips from Rodriguez's childhood attempts at filmmaking.
  • Robert Rodriguez Ten Minute Film School (HD; 8:06):
    Is another entry in Rodriguez's often very funny "10 minute" looks at various films of his. This entry concentrates on visual effects, which Rodriguez supervised on this film.
  • Robert Rodriguez Ten Minute Cooking School: Grilled Cheese Sandwich Texas Style and Healthy Smoothies (HD; 6:04):
    As he's done in some other releases of his, Rodriguez takes on the guise of master chef and cooks up a storm.
  • Stunt Piece (SD; 6:48):
    Looks at the wire work and other stunts that the kids in the film actually performed themselves.
  • Special Effects Piece (SD; 7:03):
    Iis a quick overview of several of the special effects which populate the film.
  • Teaser Trailer (SD; 1:59)
  • Theatrical Trailer (SD; 2:14)
  • Trailers for Other Releases (HD; 9:19):
    Includes a look at the new Spy Kids film with Jessica Alba.

BDInfo

DISC INFO:
Disc Title: SK 1 BD BLUEBIRD
Disc Size: 33 584 300 644 bytes
Protection: AACS
BD-Java: Yes
BDInfo: 0.5.6
PLAYLIST REPORT:
Name: 00800.MPLS
Length: 1:30:50 (h:m:s)
Size: 19 889 707 008 bytes
Total Bitrate: 29,19 Mbps
VIDEO:
Codec Bitrate Description
----- ------- -----------
MPEG-4 AVC Video 22206 kbps 1080p / 23,976 fps / 16:9 / High Profile 4.1
AUDIO:
Codec Language Bitrate Description
----- -------- ------- -----------
DTS-HD Master Audio English 4223 kbps 5.1 / 48 kHz / 4223 kbps / 24-bit (DTS Core: 5.1 / 48 kHz / 1509 kbps / 24-bit)
Dolby Digital Audio Russian 448 kbps 5.1 / 48 kHz / 448 kbps / DN -4dB
Dolby Digital Audio Russian 384 kbps 5.1 / 48 kHz / 384 kbps / DN -4dB
Dolby Digital Audio Ukrainian 192 kbps 2.0 / 48 kHz / 192 kbps / DN -4dB
SUBTITLES:
Codec Language Bitrate Description
----- -------- ------- -----------
Presentation Graphics English 39,354 kbps
Presentation Graphics English 35,802 kbps
Presentation Graphics Russian 30,808 kbps
Presentation Graphics Russian 1,090 kbps
Presentation Graphics Russian 27,330 kbps
FILES:
Name Time In Length Size Total Bitrate
---- ------- ------ ---- -------------
00003.M2TS 0:00:00.000 1:30:50.486 19 889 707 008 29 193
CHAPTERS:
Number Time In Length Avg Video Rate Max 1-Sec Rate Max 1-Sec Time Max 5-Sec Rate Max 5-Sec Time Max 10Sec Rate Max 10Sec Time Avg Frame Size Max Frame Size Max Frame Time
------ ------- ------ -------------- -------------- -------------- -------------- -------------- -------------- -------------- -------------- -------------- --------------
1 0:00:00.000 0:09:03.501 23 243 kbps 39 478 kbps 00:06:23.049 35 355 kbps 00:06:22.465 32 359 kbps 00:06:19.379 121 168 bytes 391 431 bytes 00:04:26.516
2 0:09:03.501 0:01:05.607 26 095 kbps 36 008 kbps 00:09:46.460 30 703 kbps 00:09:17.974 29 202 kbps 00:09:13.719 136 048 bytes 389 888 bytes 00:09:29.902
3 0:10:09.108 0:01:17.035 22 815 kbps 31 102 kbps 00:10:38.763 25 920 kbps 00:10:36.594 24 550 kbps 00:10:37.178 118 948 bytes 255 153 bytes 00:10:21.245
4 0:11:26.143 0:01:48.650 23 782 kbps 33 143 kbps 00:12:18.946 29 653 kbps 00:12:18.946 28 841 kbps 00:12:18.946 123 986 bytes 325 348 bytes 00:12:14.984
5 0:13:14.794 0:03:41.512 22 222 kbps 30 698 kbps 00:13:14.877 28 638 kbps 00:13:14.877 26 844 kbps 00:13:14.794 115 857 bytes 335 485 bytes 00:13:46.492
6 0:16:56.306 0:03:33.004 20 110 kbps 31 752 kbps 00:19:13.026 27 233 kbps 00:19:09.439 25 079 kbps 00:19:04.268 104 844 bytes 345 102 bytes 00:17:08.235
7 0:20:29.311 0:04:04.369 25 065 kbps 39 601 kbps 00:23:27.489 34 185 kbps 00:23:24.986 32 036 kbps 00:23:19.856 130 679 bytes 392 757 bytes 00:21:05.806
8 0:24:33.680 0:02:54.799 22 353 kbps 35 477 kbps 00:26:58.283 33 306 kbps 00:26:56.990 32 725 kbps 00:26:52.694 116 537 bytes 333 439 bytes 00:27:10.837
9 0:27:28.480 0:02:13.883 24 097 kbps 33 646 kbps 00:27:30.940 31 038 kbps 00:27:28.480 30 336 kbps 00:27:28.563 125 631 bytes 372 131 bytes 00:27:42.744
10 0:29:42.363 0:04:25.556 23 718 kbps 32 532 kbps 00:30:12.560 29 597 kbps 00:30:12.560 27 551 kbps 00:31:14.247 123 654 bytes 342 801 bytes 00:30:13.228
11 0:34:07.920 0:02:02.372 22 204 kbps 26 957 kbps 00:34:51.798 24 576 kbps 00:34:49.629 23 907 kbps 00:35:23.329 115 761 bytes 276 936 bytes 00:34:44.749
12 0:36:10.293 0:02:48.126 21 880 kbps 27 932 kbps 00:38:32.351 24 328 kbps 00:38:28.472 23 841 kbps 00:36:21.679 114 070 bytes 303 603 bytes 00:38:32.893
13 0:38:58.419 0:03:54.692 23 174 kbps 36 469 kbps 00:41:10.801 28 914 kbps 00:41:10.801 26 613 kbps 00:39:21.650 120 820 bytes 400 783 bytes 00:41:11.719
14 0:42:53.112 0:02:49.002 22 068 kbps 30 045 kbps 00:44:18.405 27 304 kbps 00:43:21.348 26 039 kbps 00:43:19.388 115 051 bytes 313 223 bytes 00:43:24.685
15 0:45:42.114 0:04:11.042 26 376 kbps 36 308 kbps 00:46:02.384 33 618 kbps 00:46:00.007 32 479 kbps 00:45:55.335 137 511 bytes 384 793 bytes 00:47:08.492
16 0:49:53.156 0:06:03.112 23 352 kbps 31 560 kbps 00:50:03.375 30 099 kbps 00:53:44.387 29 129 kbps 00:53:44.262 121 748 bytes 303 656 bytes 00:51:25.165
17 0:55:56.269 0:06:57.708 23 030 kbps 32 336 kbps 01:01:13.127 28 837 kbps 01:00:47.602 28 005 kbps 00:58:55.698 120 067 bytes 335 667 bytes 01:00:52.273
18 1:02:53.978 0:03:30.585 25 632 kbps 33 208 kbps 01:03:06.240 29 411 kbps 01:03:02.069 28 120 kbps 01:03:00.568 133 633 bytes 281 211 bytes 01:03:14.373
19 1:06:24.563 0:05:49.515 22 903 kbps 30 826 kbps 01:10:33.520 29 091 kbps 01:07:28.753 26 702 kbps 01:10:24.762 119 405 bytes 324 521 bytes 01:06:43.457
20 1:12:14.079 0:03:51.522 21 663 kbps 30 724 kbps 01:14:32.885 28 916 kbps 01:14:32.759 27 365 kbps 01:14:32.050 112 941 bytes 317 467 bytes 01:12:40.939
21 1:16:05.602 0:03:12.775 24 562 kbps 35 478 kbps 01:18:08.308 29 629 kbps 01:18:57.107 28 113 kbps 01:18:49.724 128 054 bytes 296 977 bytes 01:17:16.548
22 1:19:18.378 0:05:34.709 23 550 kbps 39 649 kbps 01:20:21.316 31 583 kbps 01:20:56.393 29 963 kbps 01:20:55.433 122 779 bytes 336 822 bytes 01:20:21.358
23 1:24:53.088 0:05:57.398 6 343 kbps 22 875 kbps 01:30:32.969 22 421 kbps 01:30:32.802 21 907 kbps 01:30:29.090 33 071 bytes 212 426 bytes 01:30:32.885

Скриншоты меню

   

Скриншоты

       
Дети шпионов 2: Остров несбывшихся надежд / Spy Kids 2: Island of Lost Dreams
Страна: США
Студия: Lionsgate Films
Жанр: Фантастика, боевик, комедия, приключения, семейный
Год выпуска: 2002
Продолжительность: 01:40:17-Перевод: Профессиональный (дублированный)
Перевод (2): Профессиональный (многоголосый закадровый)
Оригинальная аудиодорожка: английский-Режиссер: Роберт Родригес / Robert Rodriguez-В ролях: Антонио Бандерас, Карла Гуджино, Алекса Вега, Дэрил Сабара, Стив Бушеми, Майк Джадж, Дэнни Трехо, Чич Марин, Мэтью О’Лири, Эмили Осмент-Описание: Джуни и его старшая сестра Кармен еще предыдущими своими приключениями доказали, что они не только могут помогать своим родителям-шпионам, но и могут самостоятельно справляться с делами, достойными настоящих шпионов. На этот раз не их родителям, Грегорио и Ингрид, а самим Джуни и Кармен предстоит выполнить новое задание.
Они отправляются на таинственный остров, где один ученый-изобретатель создает сверхъестественные существа. Джуни и Кармен должны остановить безумного злодея, однако в этом задании у них есть конкуренты - брат и сестра Гари и Герти. У этих двух конкурирующих шпионских дуэтов одна цель - найти и уничтожить устройство, которое может нанести непоправимый вред всему миру.
Это задание оказывается слишком сложным для юных шпионов, которым на помощь приходят их родители и дедушка с бабушкой...-Меню: Есть
Тип релиза: Blu-ray disc (custom)
Контейнер: BDMV-Видео: 1920x1080p / MPEG-4 AVC / 23,976 fps / 16:9 / ~ 19999 kbps
Аудио: DTS-HD Master Audio / English / 5.1 / 48 kHz / 3092 kbps / 24-bit (DTS Core: 5.1 / 48 kHz / 1509 kbps / 24-bit)
Аудио 2: DTS Audio / Russian / 5.1 / 48 kHz / 768 kbps / 24-bit / DN -4dB (DUB)
Аудио 3: Dolby Digital Audio / Russian / 5.1 / 48 kHz / 448 kbps / DN -4dB (MVO)
Аудио 4: Dolby Digital Audio / Ukrainian / 2.0 / 48 kHz / 192 kbps / DN -4dB (MVO - Новый Канал)
Аудио 5: Dolby Digital Audio / English / 2.0 / 48 kHz / 256 kbps / DN -4dB (Audio Commentary by Robert Rodriguez)
Cубтитры: English (SDH), English (Full), Russian (Full)
Формат субтитров: prerendered (Blu-ray/PGS/SUP)

На диске

  • Киношкола за 10 минут с Робертом Родригесом (SD; 9:55): Как дешево сделать "большое кино" (переведено профессиональным аудио переводом)
  • Каскадеры: новое поколение (SD; 6:41) (переведено профессиональным аудио переводом)
  • Несбывшиеся мечты (8 невошедших сцен в фильм): (переведено профессиональным аудио переводом)
    1. Появление детей-шпионов
    2. Появление Доннагона
    3. Увольнение Джуни
    4. Дефецит героев
    5. Леденцовая синхронизация
    6. Возвращение Гарри и Герти
    7. Выход Ромеро
    8. Дедушка устанавливает законы
  • Школа в национальном парке "Биг Бэнд" (SD; 4:57) (переведено профессиональным аудио переводом)
  • Нужные вещи: примочки и прибамбасы (SD; 3:15) (переведено профессиональным аудио переводом)
  • Работа за кадром (6 сцен) (SD; 11:59) (переведено профессиональным аудио переводом)
  • Полный доступ: один день из жизни детей-шпионов (SD; 21:41) (переведено профессиональным аудио переводом)-Музыкальное видео "Isle of Dreams" (SD; 3:30)
  • Трэйлер (SD; 1:29)

BDInfo

DISC INFO:
Disc Title: SK 2 BD BLUEBIRD
Disc Size: 25 491 112 370 bytes
Protection: AACS
BD-Java: Yes
BDInfo: 0.5.6
PLAYLIST REPORT:
Name: 00800.MPLS
Length: 1:40:17 (h:m:s)
Size: 19 852 277 760 bytes
Total Bitrate: 26,39 Mbps
VIDEO:
Codec Bitrate Description
----- ------- -----------
MPEG-4 AVC Video 19999 kbps 1080p / 23,976 fps / 16:9 / High Profile 4.1
AUDIO:
Codec Language Bitrate Description
----- -------- ------- -----------
DTS-HD Master Audio English 3092 kbps 5.1 / 48 kHz / 3092 kbps / 24-bit (DTS Core: 5.1 / 48 kHz / 1509 kbps / 24-bit)
DTS Audio Russian 768 kbps 5.1 / 48 kHz / 768 kbps / 24-bit / DN -4dB
Dolby Digital Audio Russian 448 kbps 5.1 / 48 kHz / 448 kbps / DN -4dB
Dolby Digital Audio English 256 kbps 2.0 / 48 kHz / 256 kbps / DN -4dB
Dolby Digital Audio Ukrainian 192 kbps 2.0 / 48 kHz / 192 kbps / DN -4dB
SUBTITLES:
Codec Language Bitrate Description
----- -------- ------- -----------
Presentation Graphics English 39,091 kbps
Presentation Graphics English 35,845 kbps
Presentation Graphics Russian 26,945 kbps
FILES:
Name Time In Length Size Total Bitrate
---- ------- ------ ---- -------------
00002.M2TS 0:00:00.000 1:40:17.928 19 852 277 760 26 391
CHAPTERS:
Number Time In Length Avg Video Rate Max 1-Sec Rate Max 1-Sec Time Max 5-Sec Rate Max 5-Sec Time Max 10Sec Rate Max 10Sec Time Avg Frame Size Max Frame Size Max Frame Time
------ ------- ------ -------------- -------------- -------------- -------------- -------------- -------------- -------------- -------------- -------------- --------------
1 0:00:00.000 0:07:57.477 17 906 kbps 36 296 kbps 00:04:29.269 26 581 kbps 00:06:53.913 24 082 kbps 00:06:53.913 93 343 bytes 306 790 bytes 00:04:29.811
2 0:07:57.477 0:02:40.118 15 518 kbps 24 695 kbps 00:08:45.358 22 960 kbps 00:08:42.271 21 815 kbps 00:08:41.771 80 904 bytes 257 854 bytes 00:08:45.274
3 0:10:37.595 0:04:34.983 19 665 kbps 27 301 kbps 00:13:57.169 23 961 kbps 00:13:34.897 23 593 kbps 00:13:34.605 102 524 bytes 256 709 bytes 00:14:24.947
4 0:15:12.578 0:07:06.801 20 218 kbps 32 320 kbps 00:17:48.859 27 278 kbps 00:19:18.949 26 533 kbps 00:17:40.350 105 407 bytes 308 411 bytes 00:22:02.904
5 0:22:19.379 0:07:03.339 21 238 kbps 34 274 kbps 00:23:20.857 32 866 kbps 00:23:17.604 31 538 kbps 00:23:14.393 110 727 bytes 373 393 bytes 00:23:10.430
6 0:29:22.719 0:04:05.662 18 654 kbps 33 023 kbps 00:30:21.152 29 465 kbps 00:29:25.597 24 526 kbps 00:29:25.597 97 256 bytes 311 487 bytes 00:29:25.638
7 0:33:28.381 0:05:50.183 19 509 kbps 33 792 kbps 00:33:45.523 29 234 kbps 00:34:23.227 27 826 kbps 00:34:21.225 101 713 bytes 431 299 bytes 00:39:02.715
8 0:39:18.564 0:03:33.338 21 357 kbps 30 682 kbps 00:39:26.906 26 865 kbps 00:39:23.444 25 852 kbps 00:39:20.983 111 343 bytes 336 332 bytes 00:39:29.533
9 0:42:51.902 0:05:43.259 20 201 kbps 38 894 kbps 00:44:29.416 33 922 kbps 00:44:25.704 32 099 kbps 00:44:23.702 105 321 bytes 484 969 bytes 00:44:30.084
10 0:48:35.162 0:08:22.502 19 662 kbps 39 093 kbps 00:49:12.324 35 364 kbps 00:49:10.614 28 883 kbps 00:49:05.359 102 510 bytes 369 674 bytes 00:49:10.989
11 0:56:57.664 0:05:23.573 19 166 kbps 28 394 kbps 00:58:00.894 26 132 kbps 00:57:36.619 24 857 kbps 00:57:32.073 99 925 bytes 346 772 bytes 00:57:24.691
12 1:02:21.237 0:08:07.069 20 057 kbps 36 495 kbps 01:03:34.685 32 316 kbps 01:03:34.227 30 882 kbps 01:03:34.227 104 567 bytes 381 169 bytes 01:09:19.780
13 1:10:28.307 0:03:23.995 17 467 kbps 30 155 kbps 01:12:42.232 27 063 kbps 01:13:43.669 25 008 kbps 01:11:42.965 91 062 bytes 375 881 bytes 01:13:47.506
14 1:13:52.302 0:01:37.722 24 714 kbps 35 538 kbps 01:15:19.056 32 931 kbps 01:15:15.636 29 628 kbps 01:15:10.672 128 847 bytes 355 591 bytes 01:14:11.155
15 1:15:30.025 0:05:36.794 19 483 kbps 37 855 kbps 01:19:07.659 30 501 kbps 01:18:11.269 25 897 kbps 01:18:10.519 101 577 bytes 435 718 bytes 01:15:55.509
16 1:21:06.820 0:07:46.674 22 736 kbps 40 268 kbps 01:24:46.122 38 526 kbps 01:24:41.910 34 180 kbps 01:24:37.614 118 537 bytes 467 947 bytes 01:25:56.651
17 1:28:53.494 0:04:06.162 23 133 kbps 39 429 kbps 01:29:04.255 35 511 kbps 01:29:04.255 31 928 kbps 01:29:04.255 120 605 bytes 365 772 bytes 01:29:04.839
18 1:32:59.657 0:00:57.974 19 352 kbps 31 127 kbps 01:33:24.724 23 879 kbps 01:33:40.865 23 101 kbps 01:33:38.904 100 894 bytes 287 381 bytes 01:33:25.558
19 1:33:57.631 0:06:20.296 19 905 kbps 35 874 kbps 01:34:20.279 29 494 kbps 01:34:19.362 26 500 kbps 01:34:19.362 103 788 bytes 307 812 bytes 01:34:20.321

Скриншоты меню

   

Скриншоты

       
Дети шпионов 3: Игра окончена / Spy Kids 3-D: Game Over
Страна: США
Студия: Lionsgate Films
Жанр: Фантастика, боевик, комедия, приключения, семейный
Год выпуска: 2003
Продолжительность: 01:22:36-Перевод: Профессиональный (дублированный)
Оригинальная аудиодорожка: английский-Режиссер: Роберт Родригес / Robert Rodriguez-В ролях: Антонио Бандерас, Карла Гуджино, Алекса Вега, Дэрил Сабара, Рикардо Монтальбан, Холланд Тейлор, Сильвестр Сталлоне, Майк Джадж, Сальма Хайек, Мэтью О’Лири-Описание: Шпионы становятся старше, но и враги - все сильнее и изощреннее. Теперь им предстоит вступить в схватку с самим Сильвестром Сталлоне, чтобы спасти не только свои жизни, но и целый мир...
Несовершеннолетние агенты Джуни и Кармен Кортез отправляются на выполнение нового задания. На этот раз их ждет путешествие по виртуальному миру 3-D видеоигры, разработанной для того, чтобы существа, населяющие ее явились в реальный мир.
Дочь шпионов Кармен попалась в сети компьютерной игры, созданной зловещим Мастером Игрушек. Теперь ее брат должен спасти сестру, а заодно и весь мир. И помогать ему в этом будут его родители!-Меню: Есть
Тип релиза: Blu-ray disc (custom)
Контейнер: BDMV-Видео: 1920x1080p / MPEG-4 AVC / 23,976 fps / 16:9 / ~ 22210 kbps
Аудио: DTS-HD Master Audio / English / 5.1 / 48 kHz / 4533 kbps / 24-bit (DTS Core: 5.1 / 48 kHz / 1509 kbps / 24-bit)
Аудио 2: DTS Audio / Russian / 5.1 / 48 kHz / 768 kbps / 24-bit / DN -4dB (DUB)
Аудио 3: Dolby Digital Audio / Ukrainian / 2.0 / 48 kHz / 192 kbps / DN -4dB (MVO - Новый Канал)
Аудио 4: Dolby Digital Audio / English / 2.0 / 48 kHz / 256 kbps / DN -4dB (Audio Commentary by Robert Rodriguez)
Cубтитры: English (SDH), English (Full), Russian (Full)
Формат субтитров: prerendered (Blu-ray/PGS/SUP)

На диске

  • Школа киноискусства за 10 мин с Робертом Родригезом (SD; 9:51): "Волшебный зеленый экран и крутое домашнее видео" (переведено профессиональным аудио переводом)
  • Путешествие в третье измерение (SD; 21:14): "Как создавался фильм" (переведено профессиональным аудио переводом)
  • Концерт Алексы Веги (3 музыкальных видеоклипа) (переведено профессиональным аудио переводом)
  • Запись саундтрека с Алексой Вегой (SD; 0:59) (переведено профессиональным аудио переводом)
  • Создание сцены с лавой (3 сцены) (переведено профессиональным аудио переводом)
  • Большой Динк, маленький Динк (SD; 1:40) (переведено профессиональным аудио переводом)
  • Cекреты игры (SD; 6:40)
  • Трэйлер

BDInfo

DISC INFO:
Disc Title: SK 3 BD BLUEBIRD
Disc Size: 23 178 069 436 bytes
Protection: AACS
BD-Java: Yes
BDInfo: 0.5.6
PLAYLIST REPORT:
Name: 00800.MPLS
Length: 1:22:36 (h:m:s)
Size: 18 412 601 280 bytes
Total Bitrate: 29,72 Mbps
VIDEO:
Codec Bitrate Description
----- ------- -----------
MPEG-4 AVC Video 22210 kbps 1080p / 23,976 fps / 16:9 / High Profile 4.1
AUDIO:
Codec Language Bitrate Description
----- -------- ------- -----------
DTS-HD Master Audio English 4533 kbps 5.1 / 48 kHz / 4533 kbps / 24-bit (DTS Core: 5.1 / 48 kHz / 1509 kbps / 24-bit)
DTS Audio Russian 768 kbps 5.1 / 48 kHz / 768 kbps / 24-bit / DN -4dB
Dolby Digital Audio English 256 kbps 2.0 / 48 kHz / 256 kbps / DN -4dB
Dolby Digital Audio Ukrainian 192 kbps 2.0 / 48 kHz / 192 kbps / DN -4dB
SUBTITLES:
Codec Language Bitrate Description
----- -------- ------- -----------
Presentation Graphics English 35,594 kbps
Presentation Graphics English 32,886 kbps
Presentation Graphics Russian 26,321 kbps
FILES:
Name Time In Length Size Total Bitrate
---- ------- ------ ---- -------------
00002.M2TS 0:00:00.000 1:22:36.993 18 412 601 280 29 716
CHAPTERS:
Number Time In Length Avg Video Rate Max 1-Sec Rate Max 1-Sec Time Max 5-Sec Rate Max 5-Sec Time Max 10Sec Rate Max 10Sec Time Avg Frame Size Max Frame Size Max Frame Time
------ ------- ------ -------------- -------------- -------------- -------------- -------------- -------------- -------------- -------------- -------------- --------------
1 0:00:00.000 0:00:52.844 15 427 kbps 36 307 kbps 00:00:47.797 29 546 kbps 00:00:46.046 27 161 kbps 00:00:41.458 80 368 bytes 351 498 bytes 00:00:30.155
2 0:00:52.844 0:01:46.314 25 229 kbps 39 312 kbps 00:01:58.409 34 915 kbps 00:01:55.281 31 667 kbps 00:01:57.534 131 530 bytes 441 098 bytes 00:02:01.246
3 0:02:39.159 0:01:12.447 32 752 kbps 39 490 kbps 00:02:45.957 38 244 kbps 00:03:38.635 37 274 kbps 00:03:36.007 170 756 bytes 428 466 bytes 00:02:46.916
4 0:03:51.606 0:02:52.797 32 272 kbps 40 204 kbps 00:05:40.757 39 027 kbps 00:05:48.514 36 332 kbps 00:03:53.524 168 253 bytes 409 241 bytes 00:03:57.570
5 0:06:44.404 0:02:22.725 32 275 kbps 39 691 kbps 00:07:26.487 36 912 kbps 00:07:23.484 36 365 kbps 00:08:52.281 168 269 bytes 443 769 bytes 00:07:16.936
6 0:09:07.129 0:01:17.994 25 759 kbps 37 408 kbps 00:10:17.325 35 251 kbps 00:10:15.323 33 939 kbps 00:10:14.071 134 294 bytes 368 878 bytes 00:09:23.354
7 0:10:25.124 0:02:04.707 23 692 kbps 36 871 kbps 00:11:53.045 32 204 kbps 00:11:22.848 29 053 kbps 00:11:19.428 123 522 bytes 444 214 bytes 00:12:26.036
8 0:12:29.832 0:01:06.649 22 518 kbps 35 476 kbps 00:13:30.559 32 609 kbps 00:13:26.514 30 805 kbps 00:13:23.636 117 398 bytes 411 952 bytes 00:13:28.682
9 0:13:36.482 0:01:51.110 18 580 kbps 27 165 kbps 00:13:37.775 25 046 kbps 00:15:04.278 24 352 kbps 00:15:03.903 96 868 bytes 318 773 bytes 00:15:14.914
10 0:15:27.593 0:03:59.030 22 486 kbps 38 791 kbps 00:16:58.600 34 813 kbps 00:16:27.611 31 115 kbps 00:16:26.610 117 231 bytes 442 136 bytes 00:17:58.410
11 0:19:26.623 0:05:54.812 23 068 kbps 37 476 kbps 00:22:31.600 31 642 kbps 00:22:28.472 31 120 kbps 00:23:02.464 120 267 bytes 409 550 bytes 00:19:31.587
12 0:25:21.436 0:01:41.976 15 643 kbps 23 285 kbps 00:25:54.302 21 312 kbps 00:25:53.677 19 176 kbps 00:25:52.676 81 556 bytes 323 305 bytes 00:27:03.371
13 0:27:03.413 0:01:28.838 23 894 kbps 28 477 kbps 00:27:37.739 27 094 kbps 00:28:14.442 26 670 kbps 00:27:31.649 124 570 bytes 354 969 bytes 00:28:11.481
14 0:28:32.252 0:09:27.149 23 855 kbps 38 130 kbps 00:34:37.450 32 728 kbps 00:34:33.571 30 948 kbps 00:34:29.233 124 368 bytes 450 702 bytes 00:34:39.243
15 0:37:59.402 0:03:09.731 19 891 kbps 34 045 kbps 00:38:41.736 25 033 kbps 00:39:39.335 24 761 kbps 00:38:08.327 103 703 bytes 349 089 bytes 00:38:42.486
16 0:41:09.133 0:01:58.284 20 922 kbps 35 890 kbps 00:42:44.395 32 420 kbps 00:42:43.894 27 792 kbps 00:42:42.017 109 080 bytes 346 940 bytes 00:41:10.092
17 0:43:07.418 0:05:54.812 21 114 kbps 33 814 kbps 00:45:46.201 28 097 kbps 00:45:42.322 26 343 kbps 00:45:37.443 110 077 bytes 342 901 bytes 00:44:26.997
18 0:49:02.230 0:02:34.154 24 183 kbps 32 626 kbps 00:50:04.793 31 434 kbps 00:50:04.501 29 999 kbps 00:50:31.695 126 077 bytes 358 096 bytes 00:50:43.540
19 0:51:36.384 0:01:54.364 26 673 kbps 40 254 kbps 00:52:36.653 38 789 kbps 00:52:26.351 38 054 kbps 00:52:27.602 139 063 bytes 455 248 bytes 00:52:25.142
20 0:53:30.749 0:02:25.728 24 124 kbps 37 894 kbps 00:55:13.476 33 471 kbps 00:54:58.169 31 764 kbps 00:54:53.164 125 770 bytes 418 360 bytes 00:54:20.674
21 0:55:56.478 0:02:58.845 23 438 kbps 32 214 kbps 00:58:45.813 28 071 kbps 00:56:05.320 27 233 kbps 00:56:02.734 122 194 bytes 361 063 bytes 00:58:33.343
22 0:58:55.323 0:04:46.077 22 365 kbps 35 100 kbps 01:00:55.401 31 686 kbps 01:01:16.547 30 530 kbps 01:01:09.916 116 601 bytes 415 758 bytes 01:01:13.961
23 1:03:41.400 0:01:53.738 31 731 kbps 38 923 kbps 01:03:41.943 36 367 kbps 01:03:41.943 35 592 kbps 01:03:41.943 165 429 bytes 401 207 bytes 01:04:25.945
24 1:05:35.139 0:01:24.084 28 998 kbps 39 806 kbps 01:05:50.905 37 836 kbps 01:06:11.968 34 918 kbps 01:06:08.297 151 183 bytes 492 025 bytes 01:06:10.925
25 1:06:59.223 0:02:27.647 22 083 kbps 36 001 kbps 01:07:04.186 31 902 kbps 01:07:02.935 27 585 kbps 01:07:02.852 115 128 bytes 357 404 bytes 01:08:07.249
26 1:09:26.871 0:01:57.075 22 962 kbps 37 352 kbps 01:10:34.063 27 949 kbps 01:10:42.488 26 635 kbps 01:10:34.063 119 711 bytes 467 867 bytes 01:10:34.647
27 1:11:23.946 0:03:18.948 18 001 kbps 33 803 kbps 01:13:02.669 32 554 kbps 01:13:01.376 27 312 kbps 01:13:00.000 93 847 bytes 461 712 bytes 01:14:07.401
28 1:14:42.895 0:00:42.375 23 755 kbps 30 990 kbps 01:15:04.124 28 651 kbps 01:15:03.248 27 015 kbps 01:15:01.288 123 846 bytes 400 750 bytes 01:15:23.644
29 1:15:25.270 0:07:11.722 8 104 kbps 16 246 kbps 01:15:30.776 15 615 kbps 01:15:28.065 15 290 kbps 01:15:26.063 42 256 bytes 235 213 bytes 01:17:15.339

Скриншоты меню

   

Скриншоты

       

Дополнительно

Диски пересобраны BWS9 из оригинальных блурэев, используемое програмное обеспечение: BD Reauthor, Sonic Scenarist BD, Adobe Photoshop, SubRip, SubtitleWorkshop, Sony Sound Forge, Adobe Audition, Eac3to, DTS-HD Suite. Структуры дисков полностью сохранены.
Воспроизведение проверено на Arcsoft Total Media Player 3, Arcsoft Total Media Player 5, Scenarist QC 1.5 и HD Media Player Seagate FreeAgent Theater+ (Содержимое папок "AACS" перенесено в "ANY!")

_________________


Last edited by nsa1977 on 2011-08-07 10:53; edited 1 time in total
Other forum [Profile] [PM]

GerrMann

Longevity: 8 years 2 months

Posts: 1

Торрент-статистика

Post 17-Aug-2011 21:42 (after 11 days)

[Quote]

скорости!!!
Other forum [Profile] [PM]
Display posts from previous:    
Reply to topic

The time now is: Today 09:13

All times are GMT + 3 Hours



You cannot post new topics in this forum
You cannot reply to topics in this forum
You cannot edit your posts in this forum
You cannot delete your posts in this forum
You cannot vote in polls in this forum
You cannot attach files in this forum
You cannot download files in this forum