Today is a free download without charge Download

Jesus Christ Superstar - Live Arena Tour [2012, rock-opera, musical, BDRip 720p]

Reply to topic
 
Author
Message

Omen ®

Longevity: 8 years 3 months

Posts: 181087

Торрент-статистика

Post 28-May-2013 13:45

[Quote]

Jesus Christ Superstar - Live Arena Tour 2012
Жанр: rock-opera, musical
Продолжительность: 01:44:09
Год выпуска: 2012
Описание: Запись живого исполнения современной версии классической рок-оперы Эндрю Ллойда Уэббера, адаптированной специально для исполнения на больших площадках (Арена-рок). Роль Иуды исполнил австралийский актер Тим Минчин, неоднократный лауреат престижных американских и британских премий в жанре музыкальной комедии. Мелани Си, наиболее известная как участница "Спайс Герлз" - самой успешной женской группы в музыкальной истории Великобритании, сыграла Марию Магдалину. Популярный ведущий английского утреннего шоу Крис Мойлз выступил в роли царя Ирода, а победитель конкурса телеканала ITV "Суперзвезда" Бен Фостер исполнил роль Иисуса. После премьеры, прошедшей перед 12-тысячной аудиторией на стадионе в Манчестере, сэр Эндрю признался, что всегда мечтал увидеть постановку именно в таком виде, подчеркнув, что она изначально не планировалась для исполнения на театральных подмостках, а бродвейская версия вообще напоминает ему травести-шоу.

Треклист

Act 1:
01 Overture - Увертюра
02 Heaven on Their Minds - Думают о небесах
03 What's the Buzz? - Что за шум?
04 Strange Thing Mystifying - Странно и загадочно
05 Everything's Alright - Всё хорошо
06 This Jesus Must Die - Иисус должен умереть
07 Hosanna - Осанна
08 Simon Zealotes - Симон Зелот
09 Poor Jerusalem - Бедный Иерусалим
10 Pilate's Dream - Сон Пилата
11 The Temple - Храм
12 Everything's Alright (Reprise) - Всё хорошо (реприза)
13 I Don't Know How to Love Him - Я не знаю, как любить его
14 Damned For All Time / Blood Money - Проклят на все времена \ Кровавые деньги
Act 2:
01 The Last Supper - Тайная вечеря
02 Gethsemane (I Only Want to Say) - Гефсиманский сад (Я хочу лишь сказать)
03 The Arrest - Арест
04 Peter's Denial - Отречение Петра
05 Pilate and Christ - Пилат и Христос
06 King Herod's Song - Песня Царя Ирода
07 Could We Start Again Please? - Прошу, давай начнём сначала
08 Judas' Death - Смерть Иуды
09 Trial Before Pilate (including the 39 lashes) - Суд Пилата (включая 39 ударов хлыстом)
10 Superstar - Суперзвезда
11 The Crucifixion - Распятие
12 John Nineteen Forty-One - Евангелие от Иоанна 19:41
13 Curtain Call - Выход на поклон публике
Качество: BDRip 720p
Контейнер: MKV
Видео кодек: H.264
Аудио кодек: DTS
Видео: AVC, 1280x720 (16:9), ~5000 Kbps, 23.976 fps, 0.226 bits/pixel
Аудио: DTS, 6 ch, 1510 Kbps, 48.0 KHz
Субтитры: русские, английские
Главы: подписаны

Отчёт MediaInfo / BDInfo

GeneralUnique ID : 203881901215240256058087958749301651680 (0x996239D269D25000B1B64311CBAB38E0)Complete name : D:\Documents\Videos\Jesus Christ Superstar - Live Arena Tour [2012].mkvFormat : MatroskaFormat version : Version 4 / Version 2File size : 4.76 GiBDuration : 1h 44mnOverall bit rate : 6 538 KbpsEncoded date : UTC 2013-05-28 05:16:28Writing application : mkvmerge v6.2.0 ('Promised Land') built on Apr 28 2013 12:22:01Writing library : libebml v1.3.0 + libmatroska v1.4.0
VideoID : 1Format : AVCFormat/Info : Advanced Video CodecFormat profile : [email protected] settings, CABAC : YesFormat settings, ReFrames : 7 framesCodec ID : V_MPEG4/ISO/AVCDuration : 1h 44mnBit rate : 5 000 KbpsWidth : 1 280 pixelsHeight : 720 pixelsDisplay aspect ratio : 16:9Frame rate mode : ConstantFrame rate : 23.976 fpsColor space : YUVChroma subsampling : 4:2:0Bit depth : 8 bitsScan type : ProgressiveBits/(Pixel*Frame) : 0.226Stream size : 3.56 GiB (75%)Writing library : x264 core 133 r2334 a3ac64bEncoding settings : cabac=1 / ref=7 / deblock=1:-3:-3 / analyse=0x3:0x133 / me=umh / subme=7 / psy=1 / psy_rd=1.00:0.00 / mixed_ref=1 / me_range=16 / chroma_me=1 / trellis=2 /8x8dct=1 / cqm=0 / deadzone=21,11 / fast_pskip=0 / chroma_qp_offset=-2 / threads=4 / lookahead_threads=1 / sliced_threads=0 / nr=0 / decimate=1 / interlaced=0 / bluray_compat=0 /constrained_intra=0 / bframes=3 / b_pyramid=2 / b_adapt=1 / b_bias=0 / direct=3 / weightb=1 / open_gop=0 / weightp=2 / keyint=240 / keyint_min=24 / scenecut=40 / intra_refresh=0 /rc_lookahead=40 / rc=2pass / mbtree=1 / bitrate=5000 / ratetol=1.0 / qcomp=0.60 / qpmin=0 / qpmax=69 / qpstep=4 / cplxblur=20.0 / qblur=0.5 / vbv_maxrate=30000 / vbv_bufsize=50000 /nal_hrd=none / ip_ratio=1.40 / aq=1:1.00Language : EnglishDefault : YesForced : No
AudioID : 2Format : DTSFormat/Info : Digital Theater SystemsMode : 16Format settings, Endianness : BigCodec ID : A_DTSDuration : 1h 44mnBit rate mode : ConstantBit rate : 1 509 KbpsChannel(s) : 6 channelsChannel positions : Front: L C R, Side: L R, LFESampling rate : 48.0 KHzBit depth : 24 bitsCompression mode : LossyStream size : 1.10 GiB (23%)Language : EnglishDefault : YesForced : No
Text #1ID : 3Format : PGSMuxing mode : zlibCodec ID : S_HDMV/PGSCodec ID/Info : The same subtitle format used on BDs/HD-DVDsLanguage : RussianDefault : YesForced : No
Text #2ID : 4Format : PGSMuxing mode : zlibCodec ID : S_HDMV/PGSCodec ID/Info : The same subtitle format used on BDs/HD-DVDsLanguage : EnglishDefault : NoForced : No
Menu00:00:00.000 : Overture00:04:58.798 : Heaven on Their Minds00:09:31.445 : What’s the Buzz?00:12:03.889 : Strange Thing, Mystifying00:13:44.573 : Everything’s Alright00:18:05.292 : This Jesus Must Die00:21:45.762 : Hosanna00:24:43.523 : Simon Zealotes00:28:06.601 : Poor Jerusalem00:30:09.140 : Pilate’s Dream00:31:48.114 : The Temple00:37:04.180 : I Don’t Know How to Love Him00:37:37.797 : Damned For All Time00:41:28.652 : Blood Money00:47:26.468 : The Last Supper00:54:46.533 : Gethsemane (I Only Want to Say)01:01:26.766 : The Arrest01:04:21.983 : Peter’s Denial01:05:49.737 : Pilate and Christ01:08:34.110 : King Herod’s Song01:12:42.941 : Could We Start Again, Please?01:15:27.523 : Judas’ Death01:20:56.685 : Trial Before Pilate (including the 39 lashes)01:27:22.779 : Superstar01:31:58.513 : The Crucifixion01:33:52.501 : John 19:4101:36:43.756 : Curtain Call / Credits
Other forum [Profile] [PM]
Display posts from previous:    
Reply to topic

The time now is: Today 12:34

All times are GMT + 3 Hours



You cannot post new topics in this forum
You cannot reply to topics in this forum
You cannot edit your posts in this forum
You cannot delete your posts in this forum
You cannot vote in polls in this forum
You cannot attach files in this forum
You cannot download files in this forum