Today is a free download without charge Download

2199: Космическая одиссея / Space Battleship Yamato (Такаши Ямазаки) [2010 г., фантастика, боевик, драма, приключения, HDRip]

Reply to topic
 
Author
Message

sassad ®

Gender:

Longevity: 9 years 8 months

Posts: 1214

Location: Галич

Торрент-статистика

Post 05-Aug-2011 21:18

[Quote]

2199: Космическая одиссея / Space Battleship Yamato--
Год выпуска: 2010
Страна: Япония
Жанр: фантастика, боевик, драма, приключения
Продолжительность: 131 мин.
Перевод: Любительский (многоголосый)
Режиссер: Такаши Ямазаки
Продюссер: Тошиаки Наказава, Казуя Хамана
Сценарий: Лэйдзи Матсумото, Шимако Сато, Ёсинобу Нисидзаки-Бюджет:$25 000 000
Премьера в мире: 1 декабря 2010
6.30 (929)--
В ролях: Такуя Кимура, Меиса Куроки, Тоширо Янагиба, Наото Огата, Хироюки Икеучи, Синъити Цуцуми, Маико, Рейко Такашима, Тошиюки Нишида, Тошихиро Яшиба-Описание: Космический линкор «Ямато» отправляется в опасную космическую экспедицию. Его цель — планета Искандер, которая является последней надеждой разоренной и отравленной радиацией, планеты Земля. Война с далекими пришельцами не прошла бесследно: бескрайние пустыни и разрушенные города, повсеместные мутации, высокий радиационный уровень атмосферы. Планета Искандер хранит нейтрализатор и только он может помочь нашей Родине...-Качество: HDRip
Формат: AVI
Видео кодек: XviD
Аудио кодек: AC3
Видео: 720x304,Битрейт ~1050 Kbit/s,Xvid
Аудио: AC3, 48,0 КHz, 5.1, 448 Kbit/s

MediaInfo

Полное имя :2199.Kosmicheskaya.odisseya.2011.HDRip.avi
Формат : AVI
Формат/Информация : Audio Video Interleave
Размер файла : 1,46 Гбайт
Продолжительность : 2 ч. 18 м.
Общий поток : 1507 Кбит/сек
Программа кодирования : VirtualDubMod 1.5.10.3 (build 2550/release)
Библиотека кодирования : VirtualDubMod build 2550/release
Видео
Идентификатор : 0
Формат : MPEG-4 Visual
Профиль формата : Advanced [email protected]
Параметр BVOP формата : 2
Параметр QPel формата : Нет
Параметр GMC формата : Без точки перехода
Параметр матрицы формата : Default (MPEG)
Идентификатор кодека : XVID
Идентификатор кодека/Подсказка : XviD
Продолжительность : 2 ч. 18 м.
Битрейт : 1050 Кбит/сек
Ширина : 720 пикс.
Высота : 304 пикс.
Соотношение сторон : 2,35:1
Частота кадров : 23,976 кадр/сек
Цветовое пространство : YUV
Подвыборка цветности : 4:2:0
Битовая глубина : 8 бит
Тип развёртки : Прогрессивная
Метод сжатия : С потерями
Бит/(Пиксели*Кадры) : 0.200
Размер потока : 1,02 Гбайт (70%)
Библиотека кодирования : XviD 1.2.1 (UTC 2008-12-04)
Аудио
Идентификатор : 1
Формат : AC-3
Формат/Информация : Audio Coding 3
Расширение режима : CM (complete main)
Идентификатор кодека : 2000
Продолжительность : 2 ч. 18 м.
Вид битрейта : Постоянный
Битрейт : 448 Кбит/сек
Каналы : 6 каналов
Расположение каналов : Front: L C R, Side: L R, LFE
Частота : 48,0 КГц
Битовая глубина : 16 бит
Метод сжатия : С потерями
Размер потока : 443 Мбайт (30%)
Выравнивание : Разделение по промежуткам
Продолжительность промежутка : 42 мс. (1,00 видеокадр)
Время предзагрузки промежутка : 500 ms
- --            --

_________________


Last edited by sassad on 2011-08-05 21:20; edited 1 time in total
Other forum [Profile] [PM]

das1

Longevity: 8 years 6 months

Posts: 2

Торрент-статистика

Post 12-May-2012 18:22 (after 9 months 6 days)

[Quote]

Фильм мне очень понравился, советую!
________________
2199: Космическая одиссея смотреть онлайн
Other forum [Profile] [PM]
Display posts from previous:    
Reply to topic

The time now is: Today 09:47

All times are GMT + 3 Hours



You cannot post new topics in this forum
You cannot reply to topics in this forum
You cannot edit your posts in this forum
You cannot delete your posts in this forum
You cannot vote in polls in this forum
You cannot attach files in this forum
You cannot download files in this forum