Today is a free download without charge Download

Интервью с убийцей / Interview with a Hitman ( Перри Бхэндэл ) (2012, Боевик, Триллер ) BDRip [720p]

Reply to topic
 
Author
Message

Витек1 ®

Gender:

Longevity: 8 years 3 months

Posts: 451

Location: Житомир

Торрент-статистика

Post 27-May-2013 20:30

[Quote]

Интервью с убийцей / Interview with a Hitman - Русское название: Интервью с убийцей
Оригинальное название: Interview with a Hitman
Год выпуска: 2012
Производство: Великобритания / Kirlian Pictures, Northern Film and Media, Northstar Ventures
Жанр: Боевик, Триллер
Перевод: Профессиональное (многоголосое) НТВ+
Язык субтитров: Русские, Английские
Вид субтитров: Вшитые отключаемые
Дата мировой премьеры: 20 июля 2012
Режиссер: Перри Бхэндэл
Актеры: Люк Госс, Каролин Тилетт, Стивен Маркус, Молли Хэрмон, Бранко Томович, Адриан Буше, Рэй Пантаки, Филип Уитчёрч, Дермот Кини, Патрик Листе
Описание фильма:
Не доверяй никому! Ничего не чувствуй! Никогда не проигрывай! Эти три правила помогли Виктору достичь вершины карьеры и стать элитным наемным убийцей. Но однажды те, кто обычно делал заказ ему, получили заказ на него и Виктор вынужден бежать из страны, инсценировав свою смерть. Его путь лежит на родину — в Румынию, где живут люди, которые хотят убить его. Продолжительность: 01:35:49
Качество видео: BDRip
Видеокодек:MPEG-4 AVC/H.264
Битрейт видео: ~5011 Кбит/сек
Размер кадра: 1280х696
Аудио #1: Русский AC3, 2.0 ch, 192 Кбит/сек (многоголосый, НТВ+)
Аудио #2: Английский DTS, 5.1 ch, 1509 Кбит/сек

MediaInfo:

Формат : Matroska
Версия формата : Version 2
Размер файла : 4,49 Гбайт
Продолжительность : 1 ч. 35 м.
Общий поток : 6709 Кбит/сек
Дата кодирования : UTC 2013-03-20 21:23:14
Программа кодирования : mkvmerge v5.3.0 ('I could have danced') built on Feb 9 2012 10:38:07
Библиотека кодирования : libebml v1.2.3 + libmatroska v1.3.0
Видео
Идентификатор : 1
Формат : AVC
Формат/Информация : Advanced Video Codec
Профиль формата : [url=mailto:[email protected]][email protected][/url]
Параметр CABAC формата : Да
Параметр ReFrames формата : 5 кадров
Идентификатор кодека : V_MPEG4/ISO/AVC
Продолжительность : 1 ч. 35 м.
Битрейт : 5011 Кбит/сек
Ширина : 1280 пикселей
Высота : 696 пикселей
Соотношение сторон : 1,85:1
Режим частоты кадров : Постоянный
Частота кадров : 24,000 кадра/сек
Цветовое пространство : YUV
Субдискретизация насыщенности : 4:2:0
Битовая глубина : 8 бит
Тип развёртки : Прогрессивная
Бит/(Пиксели*Кадры) : 0.234
Размер потока : 3,26 Гбайт (73%)
Заголовок : Interview With A Hitman 2012 720p BluRay X264-7SinS
Библиотека кодирования : x264 core 125 r2208 d9d2288
Настройки программы : cabac=1 / ref=5 / deblock=1:0:0 / analyse=0x3:0x133 / me=umh / subme=7 / psy=1 / psy_rd=1.00:0.00 / mixed_ref=1 / me_range=16 / chroma_me=1 / trellis=1 / 8x8dct=1 / cqm=0 / deadzone=21,11 / fast_pskip=0 / chroma_qp_offset=-2 / threads=12 / lookahead_threads=2 / sliced_threads=0 / nr=0 / decimate=1 / interlaced=0 / bluray_compat=0 / constrained_intra=0 / bframes=3 / b_pyramid=2 / b_adapt=2 / b_bias=0 / direct=3 / weightb=1 / open_gop=0 / weightp=2 / keyint=250 / keyint_min=24 / scenecut=40 / intra_refresh=0 / rc_lookahead=50 / rc=2pass / mbtree=1 / bitrate=5011 / ratetol=1.0 / qcomp=0.60 / qpmin=0 / qpmax=69 / qpstep=4 / cplxblur=20.0 / qblur=0.5 / ip_ratio=1.40 / aq=1:1.00
Язык : English
Default : Да
Forced : Нет
Аудио #1
Идентификатор : 2
Формат : DTS
Формат/Информация : Digital Theater Systems
Режим : 16
Параметр Endianness формата : Big
Идентификатор кодека : A_DTS
Продолжительность : 1 ч. 35 м.
Вид битрейта : Постоянный
Битрейт : 1509 Кбит/сек
Каналы : 6 каналов
Расположение каналов : Front: L C R, Side: L R, LFE
Частота : 48,0 КГц
Битовая глубина : 24 бит
Метод сжатия : С потерями
Размер потока : 1,01 Гбайт (22%)
Язык : English
Default : Нет
Forced : Нет
Аудио #2
Идентификатор : 3
Формат : AC-3
Формат/Информация : Audio Coding 3
Расширение режима : CM (complete main)
Параметр Endianness формата : Big
Идентификатор кодека : A_AC3
Продолжительность : 1 ч. 35 м.
Вид битрейта : Постоянный
Битрейт : 192 Кбит/сек
Каналы : 2 канала
Расположение каналов : Front: L R
Частота : 48,0 КГц
Битовая глубина : 16 бит
Метод сжатия : С потерями
Размер потока : 132 Мбайт (3%)
Заголовок : НТВ+
Язык : Russian
Default : Да
Forced : Нет
Текст #1
Идентификатор : 4
Формат : UTF-8
Идентификатор кодека : S_TEXT/UTF8
Идентификатор кодека/Информация : UTF-8 Plain Text
Язык : Russian
Default : Нет
Forced : Нет
Текст #2
Идентификатор : 5
Формат : UTF-8
Идентификатор кодека : S_TEXT/UTF8
Идентификатор кодека/Информация : UTF-8 Plain Text
Язык : English
Default : Нет
Forced : Нет
Скриншоты:

     
     

_________________
Скачал сам, дай скачать другому!!!Не забудь сказать -
Other forum [Profile] [PM]
Similar theme
Forum Topic Author Torrent Replies Last Post
./templates/default/images/folder_dl.gif Развлекательные телепередачи и шоу, приколы и юмор Отличный Новый год на Пятом. Российский музыкальный хит-парад интернета [эфир 01.01.2013] (2013) TVRip Omen
0 | 1

0 | 839

0

2013-01-28 04:32
Omen Latest
./templates/default/images/folder_dl.gif Техническая и научно-популярная литература Роман Масленников | Хаос и порядок в Интернете. Основы сетевой самоорганизации. Онтологическое исследование (2009) [PDF] UndegraundMen
1 | 0

0 | 746

2

2013-12-23 23:05
UndegraundMen Latest
./templates/default/images/folder_dl.gif Техническая и научно-популярная литература В.В.Печеровый | Профилактика и ремонт МФУ и лазерных принтеров Canon и Hewlett Packard (2013) [DJVU] Omen
1 | 0

0 | 861

12

2014-07-22 18:05
Omen Latest
./templates/default/images/folder_dl.gif Техническая и научно-популярная литература Эндрю Блам | Сеть. Как устроен и как работает Интернет (2014) [PDF, DOCX, FB2, EPUB] Omen
0 | 1

0 | 501

10

2015-06-10 12:32
Omen Latest
Display posts from previous:    
Reply to topic

The time now is: Today 09:29

All times are GMT + 3 Hours



You cannot post new topics in this forum
You cannot reply to topics in this forum
You cannot edit your posts in this forum
You cannot delete your posts in this forum
You cannot vote in polls in this forum
You cannot attach files in this forum
You cannot download files in this forum