Today is a free download without charge Download

Garbage - One Mile High...Live [2013, Alternative Rock, Electronic, BDRip 1080p]

Reply to topic
 
Author
Message

Omen ®

Longevity: 8 years 4 months

Posts: 181087

Торрент-статистика

Post 27-May-2013 09:06

[Quote]

Garbage - One Mile High...Live
Год выпуска: 2013
Жанр: Alternative Rock, Electronic
Продолжительность: 1:33:15
Качество: BDRip 1080p
Контейнер: MKV
Видео кодек: MPEG-4 AVC
Аудио кодек: DTS
Видео: 1920x1080 / 16:9 / 29.970 fps / ~9.308 Kbps
Аудио: DTS Stereo / 48 kHz / 768 kbps / 24 bits
Дополнительно:
http://www.amazon.co.uk/One-Mile-High-Live-Blu-ray-...ge/dp/B00BPA2H3M

Product Description

After a five year break, 2012 saw Garbage back in the spotlight with a new studio album Not Your Kind Of People followed by their first world tour for seven years. Filmed on this tour at the Ogden Theatre in Denver, Colorado on October 6, One Mile High...Live is the first ever Blu-ray release of a full Garbage live concert. Charismatic singer Shirley Manson leads from the front propelled by the twin guitars of Steve Marker and Duke Erikson and the powerhouse drumming of Butch Vig with Eric Avery providing bass guitar for the live shows. The band mix highlights from the new album with classic tracks from across their career to produce the ultimate Garbage live experience.

Коврики, блинчики + фото релиза

Трэклист

1) Automatic System Habit
2) I Think I'm Paranoid
3) Shut Your Mouth
4) Why Do You Love Me
5) Queer
6) Stupid Girl
7) Hammering In My Head
8) Control
9) #1 Crush
10) Cherry Lips
11) Big Bright World
12) Blood For Poppies
13) Special
14) Milk
15) Battle In Me
16) Push It
17) Only Happy When It Rains
18) Supervixen
19) The Trick Is To Keep Breathing
20) Vow
21) Time Will Destroy Everything (End Credits)

Mediainfo

Код:
General
Unique ID                      : 246791299763900367730254946536065237474 (0xB9AA46821E64FAF9BA968A4BCD6A81E2)
Complete name                  : C:\Garbage.One.Mile.High.Live.2012.1080p.MBluRay.x264-LOUNGE.mkv
Format                         : Matroska
Format version                 : Version 2
File size                      : 6.56 GiB
Duration                       : 1h 33mn
Overall bit rate               : 10.1 Mbps
Encoded date                   : UTC 2013-05-26 01:37:32
Writing application            : mkvmerge v5.7.0 ('The Whirlwind') built on Jul  8 2012 20:08:51
Writing library                : libebml v1.2.3 + libmatroska v1.3.0
Video
ID                             : 1
Format                         : AVC
Format/Info                    : Advanced Video Codec
Format profile                 : [email protected]
Format settings, CABAC         : Yes
Format settings, ReFrames      : 4 frames
Codec ID                       : V_MPEG4/ISO/AVC
Duration                       : 1h 33mn
Bit rate                       : 9 308 Kbps
Width                          : 1 920 pixels
Height                         : 1 080 pixels
Display aspect ratio           : 16:9
Frame rate mode                : Constant
Frame rate                     : 29.970 fps
Color space                    : YUV
Chroma subsampling             : 4:2:0
Bit depth                      : 8 bits
Scan type                      : Progressive
Bits/(Pixel*Frame)             : 0.150
Stream size                    : 5.93 GiB (90%)
Writing library                : x264 core 133 r2334 a3ac64b
Encoding settings              : cabac=1 / ref=4 / deblock=1:0:0 / analyse=0x3:0x133 / me=umh / subme=8 / psy=1 / psy_rd=1.00:0.00 / mixed_ref=1 / me_range=16 / chroma_me=1 / trellis=1 / 8x8dct=1 / cqm=0 / deadzone=21,11 / fast_pskip=0 / chroma_qp_offset=-2 / threads=12 / lookahead_threads=2 / sliced_threads=0 / nr=0 / decimate=1 / interlaced=0 / bluray_compat=0 / constrained_intra=0 / bframes=3 / b_pyramid=2 / b_adapt=1 / b_bias=0 / direct=1 / weightb=1 / open_gop=0 / weightp=2 / keyint=250 / keyint_min=25 / scenecut=40 / intra_refresh=0 / rc_lookahead=40 / rc=2pass / mbtree=1 / bitrate=9308 / ratetol=1.0 / qcomp=0.60 / qpmin=0 / qpmax=69 / qpstep=4 / cplxblur=20.0 / qblur=0.5 / ip_ratio=1.40 / aq=1:1.00
Language                       : English
Default                        : Yes
Forced                         : No
Audio
ID                             : 2
Format                         : DTS
Format/Info                    : Digital Theater Systems
Mode                           : 16
Format settings, Endianness    : Big
Codec ID                       : A_DTS
Duration                       : 1h 33mn
Bit rate mode                  : Constant
Bit rate                       : 768 Kbps
Channel(s)                     : 6 channels
Channel positions              : Front: L C R, Side: L R, LFE
Sampling rate                  : 48.0 KHz
Bit depth                      : 24 bits
Compression mode               : Lossy
Stream size                    : 512 MiB (8%)
Default                        : Yes
Forced                         : No
Menu
00:00:00.000                   : en:00:00:00.000
00:03:35.515                   : en:00:03:35.515
00:07:23.510                   : en:00:07:23.510
00:12:00.453                   : en:00:12:00.453
00:16:02.028                   : en:00:16:02.028
00:21:06.999                   : en:00:21:06.999
00:25:49.214                   : en:00:25:49.214
00:32:51.036                   : en:00:32:51.036
00:37:02.020                   : en:00:37:02.020
00:42:03.654                   : en:00:42:03.654
00:45:56.020                   : en:00:45:56.020
00:49:48.619                   : en:00:49:48.619
00:54:58.562                   : en:00:54:58.562
00:59:03.940                   : en:00:59:03.940
01:03:53.430                   : en:01:03:53.430
01:08:08.952                   : en:01:08:08.952
01:12:19.001                   : en:01:12:19.001
01:17:40.055                   : en:01:17:40.055
01:21:41.463                   : en:01:21:41.463
01:26:09.965                   : en:01:26:09.965
01:31:46.301                   : en:01:31:46.301

Скриншоты

Other forum [Profile] [PM]
Display posts from previous:    
Reply to topic

The time now is: Today 19:35

All times are GMT + 3 Hours



You cannot post new topics in this forum
You cannot reply to topics in this forum
You cannot edit your posts in this forum
You cannot delete your posts in this forum
You cannot vote in polls in this forum
You cannot attach files in this forum
You cannot download files in this forum