Today is a free download without charge Download

Rival Sons • Crossroads Festival [2013, Hard Rock, Blues Rock, HDTVRip 720p]

Reply to topic
 
Author
Message

Omen ®

Longevity: 8 years 4 months

Posts: 181087

Торрент-статистика

Post 27-May-2013 09:06

[Quote]


Crossroads Festival 2013


Жанр: Hard Rock, Blues Rock
Продолжительность: 01:26:06
Год выпуска: 2013
Jay Buchanan
Robin Everhart
Scott Holiday
Mike Miley

Треклист

01. TV Programme Intro
02. You Want To
03. Get What's Coming
04. Wild Animal
05. Gypsy Heart
06. Torture
07. Memphis Sun
08. All the Way
09. Until the Sun Comes
10. Jordan
11. Manifest Destiny Pt. 1
12. Keep On Swinging
13. Pressure and Time
14. Sacred Tongue
15. Face of Light
16. Burn Down Los Angeles
17. Sou
Качество: HDTVRip 720p
Контейнер: MKV
Видео кодек: MPEG4
Аудио кодек: AC3
Видео: MPEG4 Video (H264) 1280x720 50fps 8756Kbps
Аудио: Dolby AC3 48000Hz stereo

Отчёт MediaInfo / BDInfo

GeneralUnique ID : 221537715425683808565113764716276441225 (0xA6AA9CABB3677600876A4893A9556089)Complete name : E:\RivalSons - CrossroadsFestival 2013.mkvFormat : MatroskaFormat version : Version 2File size : 5.71 GiBDuration : 1h 27mnOverall bit rate : 9 391 KbpsEncoded date : UTC 2013-05-27 00:14:01Writing application : mkvmerge v6.2.0 ('Promised Land') built on Apr 28 2013 12:22:01Writing library : libebml v1.3.0 + libmatroska v1.4.0
VideoID : 1Format : AVCFormat/Info : Advanced Video CodecFormat profile : [email protected] settings, CABAC : YesFormat settings, ReFrames : 2 framesCodec ID : V_MPEG4/ISO/AVCDuration : 1h 27mnBit rate : 8 756 KbpsWidth : 1 280 pixelsHeight : 720 pixelsDisplay aspect ratio : 16:9Frame rate mode : ConstantFrame rate : 50.000 fpsStandard : ComponentColor space : YUVChroma subsampling : 4:2:0Bit depth : 8 bitsScan type : ProgressiveBits/(Pixel*Frame) : 0.190Stream size : 5.33 GiB (93%)Default : YesForced : No
AudioID : 2Format : AC-3Format/Info : Audio Coding 3Mode extension : CM (complete main)Format settings, Endianness : BigCodec ID : A_AC3Duration : 1h 27mnBit rate mode : ConstantBit rate : 448 KbpsChannel(s) : 2 channelsChannel positions : Front: L RSampling rate : 48.0 KHzBit depth : 16 bitsCompression mode : LossyDelay relative to video : -723msStream size : 279 MiB (5%)Language : GermanDefault : YesForced : No
Other forum [Profile] [PM]
Display posts from previous:    
Reply to topic

The time now is: Today 00:09

All times are GMT + 3 Hours



You cannot post new topics in this forum
You cannot reply to topics in this forum
You cannot edit your posts in this forum
You cannot delete your posts in this forum
You cannot vote in polls in this forum
You cannot attach files in this forum
You cannot download files in this forum