Today is a free download without charge Download

Linkin Park - Lies Greed Misery (Jimmy Kimmel Live 28.06.12) [2012, Alternative Rock, HDTV 720p]

Reply to topic
 
Author
Message

Omen ®

Longevity: 8 years 3 months

Posts: 181087

Торрент-статистика

Post 27-May-2013 05:02

[Quote]

Linkin Park - Lies Greed Misery (Jimmy Kimmel Live 28.06.12)
Жанр: Alternative Rock
Продолжительность: 2m:44s
Год выпуска: 2012
Описание:
28.06.2012
Los Angeles, CA, Outside El Capitan Theatre
Jimmy Kimmel Live

Качество: HDTV 720p
Контейнер: TS
Видео кодек: MPEG2
Видео: 1280x720 | 13.4 Mbps | 59.940 fps
Аудио: AC-3 | 384kbps | 5ch | 48.0 KHz

Отчёт MediaInfo / BDInfo

GeneralID : 1 (0x1)Complete name : Linkin Park - Lies Greed Misery (Jimmy Kimmel Live 28.06.12) 720p.tsFormat : MPEG-TSFile size : 283 MiBDuration : 2mn 43sOverall bit rate mode : VariableOverall bit rate : 14.5 Mbps
VideoID : 224 (0xE0)Menu ID : 1 (0x1)Format : MPEG VideoCommercial name : HDV 720pFormat version : Version 2Format profile : [email protected] settings, BVOP : YesFormat settings, Matrix : CustomFormat settings, GOP : M=3, N=15Codec ID : 2Duration : 2mn 44sBit rate mode : VariableBit rate : 13.4 MbpsMaximum bit rate : 13.6 MbpsWidth : 1 280 pixelsHeight : 720 pixelsDisplay aspect ratio : 16:9Frame rate : 59.940 fpsStandard : ComponentColor space : YUVChroma subsampling : 4:2:0Bit depth : 8 bitsScan type : ProgressiveCompression mode : LossyBits/(Pixel*Frame) : 0.242Time code of first frame : 00:00:00;00Time code source : Group of pictures headerStream size : 262 MiB (93%)
AudioID : 128 (0x80)Menu ID : 1 (0x1)Format : AC-3Format/Info : Audio Coding 3Mode extension : CM (complete main)Format settings, Endianness : BigCodec ID : 129Duration : 2mn 43sBit rate mode : ConstantBit rate : 384 KbpsChannel(s) : 5 channelsChannel positions : Front: L C R, Side: L RSampling rate : 48.0 KHzBit depth : 16 bitsCompression mode : LossyStream size : 7.50 MiB (3%)Language : English
TextID : 224 (0xE0)-CC1Menu ID : 1 (0x1)Format : EIA-608Muxing mode : A/53 / DTVCC TransportMuxing mode, more info : Muxed in Video #1Duration : 2mn 44sBit rate mode : ConstantStream size : 0.00 Byte (0%)

Скриншоты

Other forum [Profile] [PM]
Display posts from previous:    
Reply to topic

The time now is: Today 08:30

All times are GMT + 3 Hours



You cannot post new topics in this forum
You cannot reply to topics in this forum
You cannot edit your posts in this forum
You cannot delete your posts in this forum
You cannot vote in polls in this forum
You cannot attach files in this forum
You cannot download files in this forum