Today is a free download without charge Download

Linkin Park - Live In Moscow 23.06.2011 (MTV World Stage) [2011, Alternative Rock, HDTV 1080i]

Reply to topic
 
Author
Message

Omen ®

Longevity: 8 years 3 months

Posts: 181087

Торрент-статистика

Post 27-May-2013 00:57

[Quote]

Linkin Park - Live In Moscow 23.06.2011 (MTV World Stage)
Жанр: Alternative Rock
Продолжительность: 43m:59s
Год выпуска: 2011
Описание:
Linkin Park - MTV World Stage: Live in Moscow
Red Square, T3 Premiere

Треклист:
01. New Divide
02. Given Up
03. Jornada Del Muerto
04. Waiting For The End
05. Breaking The Habit
06. Fallout
07. The Catalyst
08. In The End
09. Iridescent
10. What I've Done
11. Bleed It Out (w/ A Place For My Head verse 1/bridge)
Качество: HDTV 1080i
Контейнер: TS
Видео кодек: H.264
Видео: AVC | 1920x1080 | 10.2 Mbps | 25.000 fps
Аудио: AC-3 | 384 Kbps | 6 ch | 48.0 KHz

Отчёт MediaInfo / BDInfo

GeneralID : 1 (0x1)Complete name : linkin.park.moscow.2011.06.23.world.stage.1920x1080i50.h264.dd51.tsFormat : MPEG-TSFile size : 3.41 GiBDuration : 43mn 59sOverall bit rate mode : VariableOverall bit rate : 11.1 Mbps
VideoID : 2915 (0xB63)Menu ID : 1 (0x1)Format : AVCFormat/Info : Advanced Video CodecFormat profile : [email protected] settings, CABAC : YesFormat settings, ReFrames : 4 framesCodec ID : 27Duration : 43mn 59sBit rate : 10.2 MbpsWidth : 1 920 pixelsHeight : 1 080 pixelsDisplay aspect ratio : 16:9Frame rate : 25.000 fpsColor space : YUVChroma subsampling : 4:2:0Bit depth : 8 bitsScan type : InterlacedScan order : Top Field FirstBits/(Pixel*Frame) : 0.196Stream size : 3.12 GiB (92%)Color primaries : BT.709Transfer characteristics : BT.709Matrix coefficients : BT.709
AudioID : 2914 (0xB62)Menu ID : 1 (0x1)Format : AC-3Format/Info : Audio Coding 3Mode extension : CM (complete main)Format settings, Endianness : BigCodec ID : 6Duration : 43mn 59sBit rate mode : ConstantBit rate : 384 KbpsChannel(s) : 6 channelsChannel positions : Front: L C R, Side: L R, LFESampling rate : 48.0 KHzBit depth : 16 bitsCompression mode : LossyStream size : 121 MiB (3%)Language : English

Скриншоты

Other forum [Profile] [PM]
Display posts from previous:    
Reply to topic

The time now is: Today 22:53

All times are GMT + 3 Hours



You cannot post new topics in this forum
You cannot reply to topics in this forum
You cannot edit your posts in this forum
You cannot delete your posts in this forum
You cannot vote in polls in this forum
You cannot attach files in this forum
You cannot download files in this forum