Today is a free download without charge Download

Легенда №17 (2013) BDRip [H.264/720p-LQ]

Reply to topic
 
Author
Message

UndegraundMen ®

Longevity: 8 years 7 months

Posts: 25145

Торрент-статистика

Post 27-May-2013 00:02

[Quote]

Легенда №17 (2013) BDRip [H.264/720p-LQ]- Русское название: Легенда №17
Год выпуска: 2013
Производство: Россия
Жанр: Спорт, Драма, Биография
Перевод: Не требуется (Русский)
Язык субтитров: Отсутствует
Режиссер: Николай Лебедев
Продюсер: Леонид Верещагин, Антон Златопольский, Никита Михалков
Актеры: Данила Козловский, Олег Меньшиков, Владимир Меньшов, Борис Щербаков, Роман Мадянов, Светлана Иванова, Дарья Екамасова, Гёц Отто, Алехандра Грепи, Александр Рагулин
Описание фильма:
2 сентября 1972 года. Монреаль. Хоккейная сборная СССР с разгромным счетом 7:3 победила канадских профессионалов из НХЛ в стартовом матче эпохальной Суперсерии СССР-Канада. Это была не просто игра, это была битва за свою страну, которая перевернула мировое представление о хоккее. Теперь весь мир знал его просто по номеру «17». Валерий Харламов, забивший в том матче 2 шайбы, мгновенно взлетел на вершину славы. Сбылась его мечта -упорство, спортивный талант и суровые уроки великого тренера Анатолия Тарасова сделали из «номера 17» легенду мирового хоккея.-Дата мировой премьеры: 18 апреля 2013
Дата российской премьеры: 18 апреля 2013, «Централ Партнершип»
Дата выхода DVD релиза: 30 мая 2013, «CP Дистрибуция»
Дата выхода Blu-Ray релиза: 30 мая 2013, «CP Дистрибуция»
-Релиз от: (за исходник спасибо BLUEBIRD)
Продолжительность: 02:13:53
Качество видео: BDRip LQ (batonchik)
Видео: MPEG-4 AVC Video / 4274 Кбит/сек / 1280x536p / 24 fps / 16:9 / Main Profile 4.1
Аудио: Русский: AC3 / 5.1 / 48 kHz / 384 kbps / 16-bit

H.264 log:

--[Information] [26.05.2013 1:32:31] Standard error stream
---[NoImage] raw [info]: 1280x536p 1:1 @ 24/1 fps (cfr)
---[NoImage] x264 [info]: using SAR=1/1
---[NoImage] x264 [info]: using cpu capabilities: MMX2 SSE2Fast SSSE3 SSE4.2 AVX
---[NoImage] x264 [info]: profile High, level 4.1
---[NoImage]
---[NoImage] x264 [info]: frame I:1307 Avg QP:16.50 size:103579
---[NoImage] x264 [info]: frame P:61089 Avg QP:19.21 size: 35831
---[NoImage] x264 [info]: frame B:130414 Avg QP:20.98 size: 15076

---[NoImage] x264 [info]: consecutive B-frames: 8.0% 8.7% 16.3% 34.9% 17.0% 12.6% 1.3% 0.5% 0.2% 0.2% 0.0% 0.0% 0.2%
---[NoImage] x264 [info]: mb I I16..4: 9.7% 65.8% 24.5%
---[NoImage] x264 [info]: mb P I16..4: 5.0% 25.6% 3.6% P16..4: 35.4% 16.0% 9.4% 0.6% 0.2% skip: 4.2%
---[NoImage] x264 [info]: mb B I16..4: 0.7% 3.3% 0.5% B16..8: 38.3% 11.8% 2.9% direct:12.3% skip:30.3% L0:41.1% L1:43.9% BI:15.0%
---[NoImage] x264 [info]: 8x8 transform intra:74.2% inter:61.8%
---[NoImage] x264 [info]: direct mvs spatial:98.3% temporal:1.7%
---[NoImage] x264 [info]: coded y,uvDC,uvAC intra: 74.8% 82.1% 52.1% inter: 34.4% 40.5% 5.5%
---[NoImage] x264 [info]: i16 v,h,dc,p: 28% 22% 9% 42%
---[NoImage] x264 [info]: i8 v,h,dc,ddl,ddr,vr,hd,vl,hu: 13% 12% 8% 8% 11% 11% 12% 11% 13%
---[NoImage] x264 [info]: i4 v,h,dc,ddl,ddr,vr,hd,vl,hu: 13% 12% 6% 8% 13% 13% 13% 10% 13%
---[NoImage] x264 [info]: i8c dc,h,v,p: 37% 28% 18% 17%
---[NoImage] x264 [info]: Weighted P-Frames: Y:2.0% UV:0.8%
---[NoImage] x264 [info]: ref P L0: 51.2% 12.3% 16.9% 6.2% 4.7% 3.3% 2.9% 1.9% 0.5% 0.0%
---[NoImage] x264 [info]: ref B L0: 80.4% 10.2% 4.3% 2.1% 1.5% 0.9% 0.5%
---[NoImage] x264 [info]: ref B L1: 95.1% 4.9%
---[NoImage] x264 [info]: kb/s:4272.36
---[NoImage] encoded 192810 frames, 14.28 fps, 4272.36 kb/s
--[Information] Final statistics
---[Information] [26.05.2013 1:32:31] Video Bitrate Desired: 4274 kbit/s
---[Information] [26.05.2013 1:32:31] Video Bitrate Obtained (approximate): 4273 kbit/s

MediaInfo:

Общее
Уникальный идентификатор : 221763810329960592841832339500905444919 (0xA6D62802982E3FE08E27D64FDD82B637)
Полное имя :\Legenda.№17.2013.BDRip.720p.LQ.NNM-CLUB.mkv
Формат : Matroska
Версия формата : Version 2
Размер файла : 4,36 Гбайт
Продолжительность : 2 ч. 13 м.
Общий поток : 4658 Кбит/сек
Название фильма : Legenda.№17.2013.BDRip.720p.LQ.NNM-CLUB
Дата кодирования : UTC 2013-05-26 11:57:49
Программа кодирования : mkvmerge v5.8.0 ('No Sleep / Pillow') built on Sep 2 2012 15:37:04
Библиотека кодирования : libebml v1.2.3 + libmatroska v1.3.0
Видео
Идентификатор : 1
Формат : AVC
Формат/Информация : Advanced Video Codec
Профиль формата : [url=mailto:[email protected]][email protected][/url]
Параметр CABAC формата : Да
Параметр ReFrames формата : 8 кадров
Идентификатор кодека : V_MPEG4/ISO/AVC
Продолжительность : 2 ч. 13 м.
Битрейт : 4274 Кбит/сек
Ширина : 1280 пикселей
Высота : 536 пикселей
Соотношение сторон : 2,40:1
Режим частоты кадров : Постоянный
Частота кадров : 24,000 кадра/сек
Цветовое пространство : YUV
Субдискретизация насыщенности : 4:2:0
Битовая глубина : 8 бит
Тип развёртки : Прогрессивная
Бит/(Пиксели*Кадры) : 0.260
Размер потока : 3,91 Гбайт (90%)
Заголовок : Legenda.№17.2013.BDRip.720p.LQ.NNM-CLUB
Библиотека кодирования : x264 core 130 r2273 b3065e6
Настройки программы : cabac=1 / ref=8 / deblock=1:-2:-2 / analyse=0x3:0x133 / me=umh / subme=10 / psy=1 / psy_rd=1.00:0.15 / mixed_ref=1 / me_range=24 / chroma_me=1 / trellis=2 / 8x8dct=1 / cqm=0 / deadzone=21,11 / fast_pskip=0 / chroma_qp_offset=-3 / threads=12 / lookahead_threads=3 / sliced_threads=0 / nr=0 / decimate=1 / interlaced=0 / bluray_compat=0 / constrained_intra=0 / bframes=11 / b_pyramid=2 / b_adapt=2 / b_bias=0 / direct=3 / weightb=1 / open_gop=0 / weightp=2 / keyint=240 / keyint_min=22 / scenecut=40 / intra_refresh=0 / rc_lookahead=40 / rc=2pass / mbtree=1 / bitrate=4274 / ratetol=1.0 / qcomp=0.60 / qpmin=10 / qpmax=51 / qpstep=4 / cplxblur=20.0 / qblur=0.5 / vbv_maxrate=62500 / vbv_bufsize=78125 / nal_hrd=none / ip_ratio=1.40 / aq=1:1.00
Язык : Russian
Default : Да
Forced : Нет
Аудио
Идентификатор : 2
Формат : AC-3
Формат/Информация : Audio Coding 3
Расширение режима : CM (complete main)
Параметр Endianness формата : Big
Идентификатор кодека : A_AC3
Продолжительность : 2 ч. 13 м.
Вид битрейта : Постоянный
Битрейт : 384 Кбит/сек
Каналы : 6 каналов
Расположение каналов : Front: L C R, Side: L R, LFE
Частота : 48,0 КГц
Битовая глубина : 16 бит
Метод сжатия : С потерями
Размер потока : 368 Мбайт (8%)
Язык : Russian
Default : Да
Forced : Нет
Меню
00:00:00.000 : ru:Chapter 01
00:07:01.708 : ru:Chapter 02
00:14:53.083 : ru:Chapter 03
00:22:34.208 : ru:Chapter 04
00:28:59.500 : ru:Chapter 05
00:37:15.500 : ru:Chapter 06
00:45:29.625 : ru:Chapter 07
00:57:35.291 : ru:Chapter 08
01:08:11.791 : ru:Chapter 09
01:17:34.208 : ru:Chapter 10
01:26:25.541 : ru:Chapter 11
01:34:09.208 : ru:Chapter 12
01:43:26.458 : ru:Chapter 13
01:49:54.083 : ru:Chapter 14
01:58:50.791 : ru:Chapter 15
02:07:19.291 : ru:Chapter 16

Знаете ли Вы, что...

Во время работы над некоторыми сценами использовалось от четырех до десяти камер, в том числе камера Phantom, способная замедлять изображение в десятки раз, а также миниатюрные GoPro камеры, которые устанавливались на клюшки, шайбы и амуницию игроков.
  • Съемки фильма начались в середине июня и длились до конца сентября 2011 года, а в феврале 2012 года были досняты зимние сцены. Снимали в Москве, Электростали, Минске, Новополоцке, Бобруйске и в испанском Питильясе под Памплоной.
  • Данила Козловский тренировался играть в хоккей в течение четырех месяцев до начала съемок.
  • Постановкой хоккейных сцен занимался канадец Джоди Стечик, который работал на многих картинах, в том числе на «2012» и «Начало».
  • Ранние годы героя снимались на 16-миллиметровую пленку, годы расцвета — на 35-миллиметровую, а матч в Канаде — на цифровые камеры.
  • Близкие Валерия Харламова исполнили небольшие роли в фильме: сын Александр (сам — профессиональный хоккеист) сыграл хоккеиста «Звезды», а у сестры Татьяны Борисовны камео вахтерши в «Лужниках».
  • Режиссер фильма Николай Лебедев появляется в кадре во время пресс-конференции советской сборной в Канаде.
  • На 76 минуте, когда Ирина подходит к Харламову в больнице, у неё в пакете видно 3 апельсина, а уже в следующем кадре виден только один апельсин.
Скриншоты:

       
       

Время раздачи: круглогодичноИграю на аккордеоне за "Спасибо"
Other forum [Profile] [PM]
Display posts from previous:    
Reply to topic

The time now is: Today 04:07

All times are GMT + 3 Hours



You cannot post new topics in this forum
You cannot reply to topics in this forum
You cannot edit your posts in this forum
You cannot delete your posts in this forum
You cannot vote in polls in this forum
You cannot attach files in this forum
You cannot download files in this forum