Today is a free download without charge Download

Discovery. Гигантские чудовища: Крупнейший динозавр-убийца / Mega Beasts: Biggest Killer Dino (2009) HDTVRip [H.264/720p-LQ]

Reply to topic
 
Author
Message

UndegraundMen ®

Longevity: 7 years 7 months

Posts: 25145

Торрент-статистика

Post 27-May-2013 00:02

[Quote]

Discovery. Гигантские чудовища: Крупнейший динозавр-убийца / Mega Beasts: Biggest Killer Dino (2009) HDTVRip [H.264/720p-LQ]- Русское название: Discovery. Гигантские чудовища: Крупнейший динозавр-убийца
Оригинальное название: Mega Beasts: Biggest Killer Dino
Страна: США
Режиссер / Телекомпания: Джон Джосеф / Discovery
Год выпуска: 2009
Жанр: Документальный, научно-популярный, доисторический мир
Описание: Спинозавр царил на Земле 100 млн лет назад. У этого хищника, вдвое превосходившего тираннозавра своими размерами, был удлиненный череп, похожий на крокодилий, массивные челюсти и передние конечности с когтями, напоминавшие мясные крюки.
Продолжительность: 00:43:24
Перевод: Одноголосый закадровый (профессиональный)
Видеокодек: MPEG-4 AVC/H.264
Битрейт видео: ~ 3 898 Кбит/с
Размер кадра: 1280 x 720
Качество видео: HDTVRip [720p-LQ]
Аудио:
1. [русский] AC3, 6 ch, 224 Кбит/с
2. [english] AC3, 6 ch, 384 Кбит/с

MediaInfo

Общее
Уникальный идентификатор : 200418984197019541947133079941479355750 (0x96C74AD4C11232B79F5A2CF798A75566)
Полное имя : A:\Релизы\Discovery.MegaBeasts.Biggest.Killer.Dino.HDTVRip.720p.mkv
Формат : Matroska
Версия формата : Version 1
Размер файла : 1,39 Гбайт
Продолжительность : 43 м.
Общий поток : 4598 Кбит/сек
Дата кодирования : UTC 2010-12-09 08:44:59
Программа кодирования : mkvmerge v2.5.3 ('Boogie') built on Mar 7 2009 15:00:41
Библиотека кодирования : libebml v0.7.7 + libmatroska v0.8.1
Видео
Идентификатор : 1
Формат : AVC
Формат/Информация : Advanced Video Codec
Профиль формата : [url=mailto:[email protected]][email protected][/url]
Параметр CABAC формата : Да
Параметр ReFrames формата : 4 кадра
Идентификатор кодека : V_MPEG4/ISO/AVC
Продолжительность : 43 м.
Битрейт : 3898 Кбит/сек
Ширина : 1280 пикселей
Высота : 720 пикселей
Соотношение сторон : 16:9
Частота кадров : 25,000 кадров/сек
Цветовое пространство : YUV
Субдискретизация насыщенности : 4:2:0
Битовая глубина : 8 бит
Тип развёртки : Прогрессивная
Бит/(Пиксели*Кадры) : 0.169
Размер потока : 1,18 Гбайт (85%)
Язык : English
Default : Да
Forced : Нет
Аудио #1
Идентификатор : 2
Формат : AC-3
Формат/Информация : Audio Coding 3
Расширение режима : CM (complete main)
Параметр Endianness формата : Big
Идентификатор кодека : A_AC3
Продолжительность : 43 м.
Вид битрейта : Постоянный
Битрейт : 224 Кбит/сек
Каналы : 6 каналов
Расположение каналов : Front: L C R, Side: L R, LFE
Частота : 48,0 КГц
Битовая глубина : 16 бит
Метод сжатия : С потерями
Задержка видео : 16 мс.
Размер потока : 69,5 Мбайт (5%)
Язык : Russian
Default : Да
Forced : Нет
Аудио #2
Идентификатор : 3
Формат : AC-3
Формат/Информация : Audio Coding 3
Расширение режима : CM (complete main)
Параметр Endianness формата : Big
Идентификатор кодека : A_AC3
Продолжительность : 43 м.
Вид битрейта : Постоянный
Битрейт : 384 Кбит/сек
Каналы : 6 каналов
Расположение каналов : Front: L C R, Side: L R, LFE
Частота : 48,0 КГц
Битовая глубина : 16 бит
Метод сжатия : С потерями
Задержка видео : 16 мс.
Размер потока : 119 Мбайт (8%)
Язык : English
Default : Нет
Forced : Нет
Скриншоты:
         
         
Other forum [Profile] [PM]
Display posts from previous:    
Reply to topic

The time now is: Today 02:05

All times are GMT + 3 Hours



You cannot post new topics in this forum
You cannot reply to topics in this forum
You cannot edit your posts in this forum
You cannot delete your posts in this forum
You cannot vote in polls in this forum
You cannot attach files in this forum
You cannot download files in this forum