Today is a free download without charge Download

Новый Человек-паук / The Amazing Spider-Man (Марк Уэбб / Marc Webb) [2012, США, фантастика, боевик, приключения, BDRemux 1080p] [4K Remastered] Dub + AVO (Ю.Сербин) + AVO (А.Гаврилов) + Original (Eng) + Subs (Rus, Eng)

Reply to topic
 
Author
Message

Omen ®

Longevity: 8 years 5 months

Posts: 181087

Торрент-статистика

Post 26-May-2013 20:52

[Quote]

Новый Человек-паук / The Amazing Spider-Man

-
-Страна: США
Студия: Columbia Pictures, Laura Ziskin Productions, Marvel Enterprises
Жанр: фантастика, боевик, приключения
Год выпуска: 2012
Продолжительность: 02:16:17--Перевод 1: Профессиональный (дублированный) Blu-ray
Перевод 2: Авторский (одноголосый закадровый) Ю.Сербин
Перевод 3: Авторский (одноголосый закадровый) А.Гаврилов
Cубтитры: русские (forced, full, Commentary), английские (full, SDH, Commentary)
Оригинальная аудиодорожка: английский--Режиссер: Марк Уэбб / Marc Webb
В ролях: Эндрю Гарфилд, Эмма Стоун, Рис Иванс, Дэнис Лири, Мартин Шин, Салли Филд, Эмбет Дэвидц, Кэмпбелл Скотт, Ирфан Кхан, Крис Зилка, Макс Чарльз, С. Томас Хауэлл.--Описание: В детстве Питер Паркер был оставлен своими родителями, и поэтому воспитывался дядей и тётей. Шли годы, Питер был обычным примерным школьником, подвергался нападкам хулиганов и был влюблён в свою одноклассницу Гвен Стэйси, которая сама втайне отвечала ему взаимностью. Но после укуса генетически изменённого паука, Питер получает невероятные сверхспособности и его жизнь меняется навсегда.
Однако его не перестаёт мучить вопрос о том, что случилось с его родителями. Он знакомится с давним другом и партнёром своего отца — генетиком Куртом Коннорсом, который вместе с отцом Питера разрабатывал формулу регенерации. Питер помогает её закончить, а Коннорс, всю жизнь мечтавший восстановить свою правую руку, вводит формулу себе и становится Ящером. Осознавая свою вину, Питер начинает новую жизнь в образе таинственного супергероя Человека-паука и становится грозой преступников, одновременно пытаясь найти способ остановить Коннорса.--imdb | kinopoisk | Сэмпл--Тип релиза: BDRemux 1080p [The Amazing Spider-Man 2012 4K Remastered BluRay 1080p AVC DTS-HD MA 5.1-HDWinG]
Контейнер: MKV
Видео: MPEG-4 AVC / 34556 kbps / 1920x1080 / 23,976 fps / 16:9 / High Profile 4.1
Аудио 1: AC3 / 5.1 / 48 kHz / 640 kbps / 16 bits |Dub|
Аудио 2: DTS-HD Master Audio / 5.1 / 48 kHz / 2329 kbps / 16 bits (DTS Core: 5.1 / 48 kHz / 1510 kbps / 16 bits) |Ю.Сербин|
Аудио 3: DTS-HD Master Audio / 5.1 / 48 kHz / 2330 kbps / 16 bits (DTS Core: 5.1 / 48 kHz / 1510 kbps / 16 bits) |А.Гаврилов|
Аудио 4: AC3 / 5.1 / 48 kHz / 640 kbps / 16 bits |Dub, Ukrainian|
Аудио 5: DTS-HD Master Audio / 5.1 / 48 kHz / 2321 kbps / 16 bits (DTS Core: 5.1 / 48 kHz / 1510 kbps / 16 bits) |original|
Аудио 6: AC3 / 2.0 / 48 kHz / 192 kbps / 16 bits |Commentary|
Формат субтитров: softsub [SRT]

MediaInfo

ОбщееУникальный идентификатор : 222081964016277188484090989174471289048 (0xA7136E32AC9B9D6B9315B034BA5468D8)Полное имя : G:\HD\Новый Человек-паук.2012.Blu-Ray.Remux.(1080p).mkvФормат : MatroskaВерсия формата : Version 2Размер файла : 41,0 ГбайтПродолжительность : 2 ч. 16 м.Режим общего битрейта : ПеременныйОбщий поток : 43,0 Мбит/секДата кодирования : UTC 2013-05-26 16:03:50Программа кодирования : mkvmerge v5.8.0 ('No Sleep / Pillow') built on Sep 2 2012 15:37:04Библиотека кодирования : libebml v1.2.3 + libmatroska v1.3.0
ВидеоИдентификатор : 1Формат : AVCФормат/Информация : Advanced Video CodecПрофиль формата : [email protected]Параметр CABAC формата : ДаПараметр ReFrames формата : 2 кадраРежим смешивания : Container [email protected]Идентификатор кодека : V_MPEG4/ISO/AVCПродолжительность : 2 ч. 16 м.Вид битрейта : ПеременныйШирина : 1920 пикселейВысота : 1080 пикселейСоотношение сторон : 16:9Режим частоты кадров : ПостоянныйЧастота кадров : 23,976 кадра/секЦветовое пространство : YUVСубдискретизация насыщенности : 4:2:0Битовая глубина : 8 битТип развёртки : ПрогрессивнаяDefault : ДаForced : Нет
Аудио #1Идентификатор : 2Формат : AC-3Формат/Информация : Audio Coding 3Расширение режима : CM (complete main)Параметр Endianness формата : BigИдентификатор кодека : A_AC3Продолжительность : 2 ч. 16 м.Вид битрейта : ПостоянныйБитрейт : 640 Кбит/секКаналы : 6 каналовРасположение каналов : Front: L C R, Side: L R, LFEЧастота : 48,0 КГцБитовая глубина : 16 битМетод сжатия : С потерямиРазмер потока : 624 Мбайт (1%)Заголовок : Дубляж, Blu-ray CEEЯзык : RussianDefault : ДаForced : Нет
Аудио #2Идентификатор : 3Формат : DTSФормат/Информация : Digital Theater SystemsПрофиль формата : MA / CoreРежим : 16Параметр Endianness формата : BigИдентификатор кодека : A_DTSПродолжительность : 2 ч. 16 м.Вид битрейта : ПеременныйБитрейт : Неизвестно / 1509 Кбит/секКаналы : 6 каналовРасположение каналов : Front: L C R, Side: L R, LFEЧастота : 48,0 КГцБитовая глубина : 16 битМетод сжатия : Без потерь / LossyЗаголовок : Одноголосый закадровый, Ю.СербинЯзык : RussianDefault : НетForced : Нет
Аудио #3Идентификатор : 4Формат : DTSФормат/Информация : Digital Theater SystemsПрофиль формата : MA / CoreРежим : 16Параметр Endianness формата : BigИдентификатор кодека : A_DTSПродолжительность : 2 ч. 16 м.Вид битрейта : ПеременныйБитрейт : Неизвестно / 1509 Кбит/секКаналы : 6 каналовРасположение каналов : Front: L C R, Side: L R, LFEЧастота : 48,0 КГцБитовая глубина : 16 битМетод сжатия : Без потерь / LossyЗаголовок : Одноголосый закадровый, А.ГавриловЯзык : RussianDefault : НетForced : Нет
Аудио #4Идентификатор : 5Формат : AC-3Формат/Информация : Audio Coding 3Расширение режима : CM (complete main)Параметр Endianness формата : BigИдентификатор кодека : A_AC3Продолжительность : 2 ч. 16 м.Вид битрейта : ПостоянныйБитрейт : 640 Кбит/секКаналы : 6 каналовРасположение каналов : Front: L C R, Side: L R, LFEЧастота : 48,0 КГцБитовая глубина : 16 битМетод сжатия : С потерямиРазмер потока : 624 Мбайт (1%)Заголовок : Дубляж, Blu-ray CEEЯзык : UkrainianDefault : НетForced : Нет
Аудио #5Идентификатор : 6Формат : DTSФормат/Информация : Digital Theater SystemsПрофиль формата : MA / CoreРежим : 16Параметр Endianness формата : BigИдентификатор кодека : A_DTSПродолжительность : 2 ч. 16 м.Вид битрейта : ПеременныйБитрейт : Неизвестно / 1509 Кбит/секКаналы : 6 каналовРасположение каналов : Front: L C R, Side: L R, LFEЧастота : 48,0 КГцБитовая глубина : 16 битМетод сжатия : Без потерь / LossyЯзык : EnglishDefault : НетForced : Нет
Аудио #6Идентификатор : 7Формат : AC-3Формат/Информация : Audio Coding 3Профиль формата : Dolby DigitalРасширение режима : CM (complete main)Параметр Endianness формата : BigИдентификатор кодека : A_AC3Продолжительность : 2 ч. 16 м.Вид битрейта : ПостоянныйБитрейт : 192 Кбит/секКаналы : 2 каналаРасположение каналов : Front: L RЧастота : 48,0 КГцБитовая глубина : 16 битМетод сжатия : С потерямиРазмер потока : 187 Мбайт (0%)Заголовок : CommentaryЯзык : EnglishDefault : НетForced : Нет
Текст #1Идентификатор : 8Формат : UTF-8Идентификатор кодека : S_TEXT/UTF8Идентификатор кодека/Информация : UTF-8 Plain TextЗаголовок : forcedЯзык : RussianDefault : ДаForced : Нет
Текст #2Идентификатор : 9Формат : UTF-8Идентификатор кодека : S_TEXT/UTF8Идентификатор кодека/Информация : UTF-8 Plain TextЗаголовок : fullЯзык : RussianDefault : НетForced : Нет
Текст #3Идентификатор : 10Формат : UTF-8Идентификатор кодека : S_TEXT/UTF8Идентификатор кодека/Информация : UTF-8 Plain TextЗаголовок : CommentaryЯзык : RussianDefault : НетForced : Нет
Текст #4Идентификатор : 11Формат : UTF-8Идентификатор кодека : S_TEXT/UTF8Идентификатор кодека/Информация : UTF-8 Plain TextЗаголовок : fullЯзык : EnglishDefault : НетForced : Нет
Текст #5Идентификатор : 12Формат : UTF-8Идентификатор кодека : S_TEXT/UTF8Идентификатор кодека/Информация : UTF-8 Plain TextЗаголовок : SDHЯзык : EnglishDefault : НетForced : Нет
Текст #6Идентификатор : 13Формат : UTF-8Идентификатор кодека : S_TEXT/UTF8Идентификатор кодека/Информация : UTF-8 Plain TextЗаголовок : CommentaryЯзык : EnglishDefault : НетForced : Нет
Меню00:00:00.000 : :Chapter 0100:07:45.923 : :Chapter 0200:14:39.670 : :Chapter 0300:22:57.542 : :Chapter 0400:32:58.226 : :Chapter 0500:41:25.065 : :Chapter 0600:48:42.502 : :Chapter 0700:55:10.932 : :Chapter 0801:03:17.293 : :Chapter 0901:12:29.011 : :Chapter 1001:17:51.750 : :Chapter 1101:24:38.948 : :Chapter 1201:34:04.555 : :Chapter 1301:42:59.548 : :Chapter 1401:52:16.354 : :Chapter 1502:00:52.912 : :Chapter 16

Скриншоты


Дополнительно

Цитата:
Дорожки №2,3 получены наложением чистого голоса на центр декодированного DTS-HD MA. thx: pyha
Спасибо пользователям HDCLUB - за перевод Ю.Сербина: Loki1982, denismgn1987, MyxAmoP, ultrajeka, tide, DaviD18_85, Gans437, ZeRoNe
Спасибо пользователям форума пират.ка - за перевод А.Гаврилова: shitman82, Kampfer161, farti, chef&chef, Guyver, Pain_70, dunhill200, lexal, Chistobaev, winwide, TvarYuri, Инкогнито, Джосс, SavineX, Letyoha3, eyrobot, edsz, avedon, volfgang77, Anatoliy555, Loki1982, hulahup, Dr. Destructo, murkon, gemini, pestel

4K Mastered (этот релиз) VS Old release



Other forum [Profile] [PM]
Display posts from previous:    
Reply to topic

The time now is: Today 08:55

All times are GMT + 3 Hours



You cannot post new topics in this forum
You cannot reply to topics in this forum
You cannot edit your posts in this forum
You cannot delete your posts in this forum
You cannot vote in polls in this forum
You cannot attach files in this forum
You cannot download files in this forum