Today is a free download without charge Download

Настоящая любовь (Сергей Попов) [2012, Россия, Комедия, мелодрама, HDTV 1080i]

Reply to topic
 
Author
Message

Omen ®

Longevity: 8 years 10 months

Posts: 181086

Торрент-статистика

Post 26-May-2013 20:52

[Quote]

Настоящая любовь
Страна: Россия
Студия: ООО "Русские Золотые Серии"
Жанр: Комедия, мелодрама
Год выпуска: 2012
Продолжительность: 01:33:42
Перевод: Не требуется
Cубтитры: нет
Режиссер: Сергей Попов
В ролях: Илья Носков, Кристина Асмус, Анна Ардова, Ольга Тумайкина, Виталий Хаев, Тимофей Трибунцев, Артур Ваха, Анна Уколова, Алексей Гришин, Дарья Чаруша и другие.
Описание: Состоятельный адвокат Андрей и начинающая журналистка Лена - каждый по-своему несчастлив в личной жизни. Разведенный Андрей инкогнито ищет настоящую любовь, переодеваясь в нищего, потому что убежден: деньги портят чувства. А Лена тем временем полностью разочаровалась в мужчинах. Теперь ее цель - получить хорошую работу в газете, и в поисках сенсации она решает вывести на чистую воду брачных аферистов. Судьба сводит их вместе…
Сэмпл: http://rusfolder.com/36568075
Тип релиза: HDTV 1080i
Контейнер: TS
Доп. информация: Релиз -

Рип чистый. Без посторонних надписей. Выкладывается как есть.
Видео кодек: AVC
Аудио кодек: AC3
Видео: 1920x1080 (16:9), 25.000 fps, 13.1 Mbps, 0.253 bit/pixel
Аудио: AC3 384 Kbps, 2 channels

Скриншот с названием фильма

Скриншоты


MI

GeneralID : 1 (0x1)Complete name : D:\Выкладка\Настоящая любовь (2012, Комедия, Мелодрама, HDTV 1080i) (MYDIMKA).tsFormat : MPEG-TSFile size : 9.31 GiBDuration : 1h 33mnOverall bit rate mode : VariableOverall bit rate : 14.2 Mbps
VideoID : 69 (0x45)Menu ID : 1 (0x1)Format : AVCFormat/Info : Advanced Video CodecFormat profile : [email protected] settings, CABAC : YesFormat settings, ReFrames : 3 framesCodec ID : 27Duration : 1h 33mnBit rate : 13.1 MbpsWidth : 1 920 pixelsHeight : 1 080 pixelsDisplay aspect ratio : 16:9Frame rate : 25.000 fpsStandard : ComponentColor space : YUVChroma subsampling : 4:2:0Bit depth : 8 bitsScan type : InterlacedScan order : Top Field FirstBits/(Pixel*Frame) : 0.253Stream size : 8.60 GiB (92%)Color primaries : BT.709Transfer characteristics : BT.709Matrix coefficients : BT.709
AudioID : 68 (0x44)Menu ID : 1 (0x1)Format : AC-3Format/Info : Audio Coding 3Mode extension : CM (complete main)Format settings, Endianness : BigCodec ID : 129Duration : 1h 33mnBit rate mode : ConstantBit rate : 384 KbpsChannel(s) : 2 channelsChannel positions : Front: L RSampling rate : 48.0 KHzBit depth : 16 bitsCompression mode : LossyStream size : 257 MiB (3%)Language : English
Other forum [Profile] [PM]
Similar theme
Forum Topic Author Torrent Replies Last Post
./templates/default/images/folder_dl.gif Медицина и Здоровье Сара Ки | Настольная книга для тех, у кого болит спина (2015) [FB2] }{@R0N
1 | 0

0 | 796

5

2018-10-23 10:23
}{@R0N Latest
Display posts from previous:    
Reply to topic

The time now is: Today 14:52

All times are GMT + 3 Hours



You cannot post new topics in this forum
You cannot reply to topics in this forum
You cannot edit your posts in this forum
You cannot delete your posts in this forum
You cannot vote in polls in this forum
You cannot attach files in this forum
You cannot download files in this forum