Today is a free download without charge Download

Что-то не так с Кевином / We Need to Talk About Kevin (Линн Рэмси / Lynne Ramsay) [2011, США, Великобритания, триллер, драма, BDRip 720p] MVO + DVO + AVO + Sub Rus + Original Eng

Reply to topic
 
Author
Message

Omen ®

Longevity: 8 years 5 months

Posts: 181087

Торрент-статистика

Post 26-May-2013 20:52

[Quote]

Что-то не так с Кевином / We Need to Talk About Kevin- Страна: США, Великобритания
Студия: Artina Films / Atlantic Swiss Productions / BBC Films
Жанр: триллер, драма
Год выпуска: 2011
Продолжительность: 01:51:58-Перевод 1: Профессиональный (многоголосый закадровый)
Перевод 2: Профессиональный (двухголосый закадровый) [ П.Гланц и И.Королёва ]
Перевод 3: Авторский (одноголосый закадровый) [ Ю.Сербин ]
Cубтитры: русские
Оригинальная аудиодорожка: английский-Режиссер: Линн Рэмси / Lynne Ramsay
В ролях: Тильда Суинтон, Джон Си Райли, Эзра Миллер, Джаспер Ньюэлл, Рок Дер, Эшли Герасимович, Шаван Фэллон, Алекс Манетт, Кеннет Франклин, Лесли Лайлс-Описание: Отложив в сторону все личные и профессиональные амбиции, Ева посвящает жизнь рождению и воспитанию сына. Однако их отношения с самого начала оказываются крайне сложными. В пятнадцать лет Кевин совершает непоправимое, и Ева мучается сознанием ответственности и собственной вины. Достаточно ли она любила своего сына? Какова доля ее вины в происшедшем?..- -Тип релиза: BDRip 720p
Контейнер: MKV-Видео: AVC; 1280x544;2,35:1; 24,000 fps; 5418 kbps
Аудио 1: Russian (Dolby AC3, 6 ch, 448 Кбит/сек, 48,0 КГц) (многоголосый закадровый)
Аудио 2: Russian (DTS, 6 ch, 1510 Кбит/сек, 48,0 КГц) (двухголосый закадровый)
Аудио 3: Russian (DTS, 6 ch, 1510 Кбит/сек, 48,0 КГц) (одноголосый закадровый)
Аудио 4: English (DTS, 6 ch, 1510 Кбит/сек, 48,0 КГц)
Формат субтитров: softsub (SRT)

MediaInfo

Общее
Уникальный идентификатор : 228678842027675588611345173367956277968 (0xAC09F1653AC1BE1C98A4A6CBC5218AD0)
Полное имя : F:We.need.to.talk.about.Kevin.BDRip.720.by.Modepido.mkv
Формат : Matroska
Размер файла : 8,13 Гбайт
Продолжительность : 1 ч. 51 м.
Общий поток : 10,4 Мбит/сек
Дата кодирования : UTC 2013-05-25 18:06:29
Программа кодирования : mkvmerge v5.8.0 ('No Sleep / Pillow') built on Sep 2 2012 15:37:04
Библиотека кодирования : libebml v1.2.3 + libmatroska v1.3.0
Видео
Идентификатор : 1
Формат : AVC
Формат/Информация : Advanced Video Codec
Профиль формата : [email protected]
Параметр CABAC формата : Да
Параметр ReFrames формата : 6 кадров
Идентификатор кодека : V_MPEG4/ISO/AVC
Продолжительность : 1 ч. 51 м.
Битрейт : 5418 Кбит/сек
Ширина : 1280 пикс.
Высота : 544 пикс.
Соотношение сторон : 2,35:1
Частота кадров : 24,000 кадр/сек
Цветовое пространство : YUV
Подвыборка цветности : 4:2:0
Битовая глубина : 8 бит
Тип развёртки : Прогрессивная
Бит/(Пиксели*Кадры) : 0.324
Размер потока : 4,07 Гбайт (50%)
Библиотека кодирования : x264 core 130 r2273 b3065e6
Настройки программы : cabac=1 / ref=6 / deblock=1:-1:-1 / analyse=0x1:0x111 / me=umh / subme=9 / psy=1 / psy_rd=1.00:0.15 / mixed_ref=1 / me_range=36 / chroma_me=1 / trellis=1 / 8x8dct=0 / cqm=0 / deadzone=21,11 / fast_pskip=1 / chroma_qp_offset=-3 / threads=6 / lookahead_threads=1 / sliced_threads=0 / nr=0 / decimate=1 / interlaced=0 / bluray_compat=0 / constrained_intra=0 / bframes=10 / b_pyramid=2 / b_adapt=2 / b_bias=0 / direct=3 / weightb=1 / open_gop=0 / weightp=2 / keyint=240 / keyint_min=24 / scenecut=40 / intra_refresh=0 / rc_lookahead=50 / rc=2pass / mbtree=1 / bitrate=5418 / ratetol=1.0 / qcomp=0.60 / qpmin=0 / qpmax=69 / qpstep=4 / cplxblur=20.0 / qblur=0.5 / vbv_maxrate=50000 / vbv_bufsize=50000 / nal_hrd=none / ip_ratio=1.40 / aq=1:1.00
Язык : English
Аудио #1
Идентификатор : 2
Формат : AC-3
Формат/Информация : Audio Coding 3
Расширение режима : CM (complete main)
Идентификатор кодека : A_AC3
Продолжительность : 1 ч. 51 м.
Вид битрейта : Постоянный
Битрейт : 448 Кбит/сек
Каналы : 6 каналов
Расположение каналов : Front: L C R, Side: L R, LFE
Частота : 48,0 КГц
Битовая глубина : 16 бит
Метод сжатия : С потерями
Размер потока : 359 Мбайт (4%)
Заголовок : MVO
Язык : Russian
Аудио #2
Идентификатор : 3
Формат : DTS
Формат/Информация : Digital Theater Systems
Идентификатор кодека : A_DTS
Продолжительность : 1 ч. 51 м.
Вид битрейта : Постоянный
Битрейт : 1510 Кбит/сек
Каналы : 6 каналов
Расположение каналов : Front: L C R, Side: L R, LFE
Частота : 48,0 КГц
Битовая глубина : 24 бит
Метод сжатия : С потерями
Размер потока : 1,18 Гбайт (15%)
Заголовок : DVO
Язык : Russian
Аудио #3
Идентификатор : 4
Формат : DTS
Формат/Информация : Digital Theater Systems
Идентификатор кодека : A_DTS
Продолжительность : 1 ч. 51 м.
Вид битрейта : Постоянный
Битрейт : 1510 Кбит/сек
Каналы : 6 каналов
Расположение каналов : Front: L C R, Side: L R, LFE
Частота : 48,0 КГц
Битовая глубина : 24 бит
Метод сжатия : С потерями
Размер потока : 1,18 Гбайт (15%)
Заголовок : AVO
Язык : Russian
Аудио #4
Идентификатор : 5
Формат : DTS
Формат/Информация : Digital Theater Systems
Идентификатор кодека : A_DTS
Продолжительность : 1 ч. 51 м.
Вид битрейта : Постоянный
Битрейт : 1510 Кбит/сек
Каналы : 6 каналов
Расположение каналов : Front: L C R, Side: L R, LFE
Частота : 48,0 КГц
Битовая глубина : 24 бит
Метод сжатия : С потерями
Размер потока : 1,18 Гбайт (15%)
Язык : English
Текст
Идентификатор : 6
Формат : UTF-8
Идентификатор кодека : S_TEXT/UTF8
Идентификатор кодека/Информация : UTF-8 Plain Text
Язык : Russian
Меню
00:00:00.000 : en:00:00:00.000
00:06:55.000 : en:00:06:55.000
00:12:29.625 : en:00:12:29.625
00:20:26.000 : en:00:20:26.000
00:29:07.625 : en:00:29:07.625
00:38:43.000 : en:00:38:43.000
00:47:12.625 : en:00:47:12.625
00:58:42.000 : en:00:58:42.000
01:09:20.625 : en:01:09:20.625
01:21:01.625 : en:01:21:01.625
01:33:01.625 : en:01:33:01.625
01:47:07.625 : en:01:47:07.625

Скриншоты

Other forum [Profile] [PM]
Display posts from previous:    
Reply to topic

The time now is: Today 12:31

All times are GMT + 3 Hours



You cannot post new topics in this forum
You cannot reply to topics in this forum
You cannot edit your posts in this forum
You cannot delete your posts in this forum
You cannot vote in polls in this forum
You cannot attach files in this forum
You cannot download files in this forum