Today is a free download without charge Download

Легенда №17 (Николай Лебедев) [2013, Спорт, драма, биография, DVD5]

Reply to topic
 
Author
Message

Meshanik ®

Gender:

Longevity: 8 years 10 months

Posts: 3866

Location: Los Angeles

Торрент-статистика

Post 26-May-2013 20:21

[Quote]


Легенда №17
- Русское название: Легенда №17
Год выпуска: 2013
Производство: Россия
Жанр: Спорт, Драма, Биография
Продолжительность: 02:08:32
Перевод: Не требуется [Русский]
Субтитры: Отсутствуют
Режиссер: Николай Лебедев
Продюсер: Леонид Верещагин, Антон Златопольский, Никита Михалков
В ролях: Данила Козловский, Олег Меньшиков, Светлана Иванова, Владимир Меньшов, Александр Лобанов, Сергей Генкин, Роман Мадянов, Александр Яковлев, Алехандра Грепи, Борис Щербаков
Описание фильма:
2 сентября 1972 года. Монреаль. Хоккейная сборная СССР с разгромным счетом 7:3 победила канадских профессионалов из НХЛ в стартовом матче эпохальной Суперсерии СССР-Канада. Это была не просто игра, это была битва за свою страну, которая перевернула мировое представление о хоккее. Теперь весь мир знал его просто по номеру «17». Валерий Харламов, забивший в том матче 2 шайбы, мгновенно взлетел на вершину славы. Сбылась его мечта -упорство, спортивный талант и суровые уроки великого тренера Анатолия Тарасова сделали из «номера 17» легенду мирового хоккея.-Дата мировой премьеры: 18 апреля 2013
Дата российской премьеры: 18 апреля 2013, «Централ Партнершип»
Дата выхода DVD/Blu-Ray релиза: 30 мая 2013, «CP Дистрибуция»
-Качество видео: DVD5
Видео: MPEG-2, [email protected]х576 (PAL 16:9), ~4669 Кбит/сек
Аудио: AC3 5.1, 448 Кбит/сек [Русский]

DVDInfo:

Title: Легенда №17 (2013) DVD5
Size: 4.37 Gb ( 4 585 820,00 KBytes ) - DVD-5
Enabled regions: 1, 2, 3, 4, 5, 6, 7, 8
VTS_01 :
Play Length: 02:08:32
Video: PAL 16:9 (720x576) VBR, Auto Letterboxed
Audio:
  • Russian (Dolby AC3, 6 ch)
    * Menus Information *
    VIDEO_TS Menu
    Video:
  • PAL 4:3 (720x576) VBR
  • Auto Pan&Scan, Auto Letterboxed
    Language Unit :
    VTS_01 Menu
    Video:
  • PAL 16:9 (720x576) VBR
  • Auto Letterboxed
    Audio:
  • Not specified (Dolby AC3, 2 ch)
    English Language Unit :
  • Root Menu

MediaInfo:

Общее
Полное имя : D:\ФИЛЬМЫ\Легенда №17 (2013) DVD5\VIDEO_TS\VTS_01_1.VOB
Формат : MPEG-PS
Размер файла : 1024 Мбайт
Продолжительность : 27 м.
Режим общего битрейта : Переменный
Общий поток : 5221 Кбит/сек
Видео
Идентификатор : 224 (0xE0)
Формат : MPEG Video
Версия формата : Version 2
Профиль формата : [email protected]
Параметр BVOP формата : Да
Параметр матрицы формата : Выборочная
Параметр GOP формата : Variable
Продолжительность : 27 м.
Вид битрейта : Переменный
Битрейт : 4669 Кбит/сек
Максимальный битрейт : 8761 Кбит/сек
Ширина : 720 пикселей
Высота : 576 пикселей
Соотношение сторон : 16:9
Частота кадров : 25,000 кадров/сек
Стандарт вещания : PAL
Цветовое пространство : YUV
Субдискретизация насыщенности : 4:2:0
Битовая глубина : 8 бит
Тип развёртки : Прогрессивная
Порядок развёртки : Нижнее поле первое
Метод сжатия : С потерями
Бит/(Пиксели*Кадры) : 0.450
TimeCode_FirstFrame : 00:00:00:00
TimeCode_Source : Group of pictures header
Размер потока : 916 Мбайт (89%)
Аудио
Идентификатор : 189 (0xBD)-128 (0x80)
Формат : AC-3
Формат/Информация : Audio Coding 3
Расширение режима : CM (complete main)
Параметр Endianness формата : Big
Режим смешивания : DVD-Video
Продолжительность : 27 м.
Вид битрейта : Постоянный
Битрейт : 448 Кбит/сек
Каналы : 6 каналов
Расположение каналов : Front: L C R, Side: L R, LFE
Частота : 48,0 КГц
Битовая глубина : 16 бит
Метод сжатия : С потерями
Размер потока : 87,9 Мбайт (9%)
Меню

Дополнительная информация:

Удалена вся реклама, пред. надписи, допы и звуковая дорожка DTS, команды диска переписаны заново, обездвижено меню, деактивированы и затерты лишние кнопки на главном меню, использованы программы DVDRemake, MuxMan и Фотошоп. При помощи DVDRebuilder в связке с ССЕ сжато видео диска на 27.4 %За DVD5 спасибо большое avproh

Скриншоты меню:

   
-Скриншоты:          
Other forum [Profile] [PM]

Dracula

Longevity: 7 years 6 months

Posts: 11224

Торрент-статистика

Post 02-Jan-2014 15:52 (after 7 months 6 days)

Топик был перенесен из форума Новинки (DVD, HD Video) в форум Зарубежное кино (HD Video)


kogesan
 
Similar theme
Forum Topic Author Torrent Replies Last Post
./templates/default/images/folder_dl.gif Техническая и научно-популярная литература Дмитрий Алексеев | 100 легендарных предметов оружия (2013) [PDF] Omen
1 | 0

0 | 1259

11

2014-08-08 10:36
Omen Latest
./templates/default/images/folder_dl.gif Rock (Rock) Легенды русского рока - 2019 [MP3, tracks] Anonymous
0 | 1

0 | 1364

0

2019-03-24 21:09
Anonymous Latest
Display posts from previous:    
Reply to topic

The time now is: Today 19:08

All times are GMT + 3 Hours



You cannot post new topics in this forum
You cannot reply to topics in this forum
You cannot edit your posts in this forum
You cannot delete your posts in this forum
You cannot vote in polls in this forum
You cannot attach files in this forum
You cannot download files in this forum