Today is a free download without charge Download

Студия секса / Studio Sex (Агнета Фагерстрем-Олссон / Agneta Fagerström-Olsson) [2012, Швеция, триллер, драма, криминал, BDRip 720p] MVO (Baibako) + VO (Andi) + 4x Sub (Eng, Swe, Fin, Nor) + Original Swe

Reply to topic
 
Author
Message

Omen ®

Longevity: 8 years 5 months

Posts: 181087

Торрент-статистика

Post 26-May-2013 12:44

[Quote]

Студия секса / Studio Sex- Страна: Швеция
Студия: Degeto Film, Nordisk Film A/S, TV4 Nordisk Television и Yellow Bird Films AB
Жанр: триллер, драма, криминал
Год выпуска: 2012
Продолжительность: 01:29:31
Перевод 1: Профессиональный (многоголосый закадровый) Baibako
Перевод 2: Одноголосый (закадровый) Andi
Cубтитры: английские, шведские, финские, норвежские
Оригинальная аудиодорожка: шведская
Режиссер: Агнета Фагерстрем-Олссон / Agneta Fagerström-Olsson
В ролях: Малин Крепин, Бьёрн Чьелльман, Лейф Андре, Кайса Эрнст, Эрик Йоханссон, Феликс Энгстрем, Ричард Ульфзэтер, Леонард Терфельт, Андерс Албом, Йоханнес Альбен Альфвен, Анна Азкарате, Матс Бломгрен, Анна-Лена Хемстрём, Яннике Грут, Андреас Ротлин-Свенссон, Эльвира Францен, Эдвин Ридинг, Расмус Троедссон, Клара Бендз, Джимми Линдстрем, Николас Олссон, Алексей Манвелов, Кристоффер Свенссон
Описание: Анника Бенгтзон работает летним интерном в местной газете. В надежде на какой-то эксклюзивный материал, она с готовностью принимает информацию о трупе молодой девушки в общественном парке. Она была изнасилована и убита. Анника пишет хорошую статью, которая понравилась боссу. Тот разрешает продолжить расследование и ее внимание привлекает любовник жертвы, владелец секс-клуба, где работала убитая, и высокопоставленный министр, частый гость злачного места, живущий неподалеку. Она роется в алиби бюрократа и находит про него много интересного, в том числе намеки на международный шпионаж.

Тип релиза: BDRip 720p [EbP]
Контейнер: MKV
Видео: 1280x720 (16:9), 25,000 fps, x264 ~5100 kbps avg, 0.221 bit/pixel
Аудио 1: 48 kHz, AC3 Dolby Digital, 3/2 (L,C,R,l,r) + LFE ch, 384 kbps (русская, Baibako)
Аудио 2: 48 kHz, Digital Theater Systems, 3/2 (L,C,R,l,r) + LFE ch, 1510 kbps (русская, Andi)
Аудио 3: 48 kHz, Digital Theater Systems, 3/2 (L,C,R,l,r) + LFE ch, 1509 kbps (шведская)
Формат субтитров: softsub (SRT)
Чаптеры: есть

MediaInfo

ОбщееУникальный идентификатор : 200640822248364362497909888479335181299 (0x96F2044A9C312D419B0667E03F626BF3)Полное имя : \Studio.Sex.2012.720p.BluRay.DTS.x264.mkvФормат : MatroskaВерсия формата : Version 2Размер файла : 5,32 ГбайтПродолжительность : 1 ч. 29 м.Общий поток : 8501 Кбит/секДата кодирования : UTC 2013-05-25 18:20:48Программа кодирования : mkvmerge v4.5.0 ('Speed of Light') сборка от Feb 1 2011 02:10:32Библиотека кодирования : libebml v1.2.0 + libmatroska v1.1.0
ВидеоИдентификатор : 1Формат : AVCФормат/Информация : Advanced Video CodecПрофиль формата : [email protected]Параметр CABAC формата : ДаПараметр ReFrames формата : 9 кадровИдентификатор кодека : V_MPEG4/ISO/AVCПродолжительность : 1 ч. 29 м.Битрейт : 5100 Кбит/секШирина : 1280 пикселейВысота : 720 пикселейСоотношение сторон : 16:9Режим частоты кадров : ПостоянныйЧастота кадров : 25,000 кадров/секЦветовое пространство : YUVСубдискретизация насыщенности : 4:2:0Битовая глубина : 8 битТип развёртки : ПрогрессивнаяБит/(Пиксели*Кадры) : 0.221Размер потока : 3,08 Гбайт (58%)Заголовок : Studio.Sex.2012.720p.BluRay.DTS.x264-EbPБиблиотека кодирования : x264 core 125 r2208 d9d2288Настройки программы : cabac=1 / ref=9 / deblock=1:-3:-3 / analyse=0x3:0x113 / me=tesa / subme=11 / psy=1psy_rd=1.05:0.00 / mixed_ref=1 / me_range=16 / chroma_me=1 / trellis=2 / 8x8dct=1 / cqm=0 / deadzone=21,11 / fast_pskip=0chroma_qp_offset=-2 / threads=12 / lookahead_threads=2 / sliced_threads=0 / nr=0 / decimate=0 / interlaced=0 / bluray_compat=0constrained_intra=0 / bframes=11 / b_pyramid=2 / b_adapt=2 / b_bias=0 / direct=3 / weightb=1 / open_gop=0 / weightp=2keyint=250 / keyint_min=25 / scenecut=40 / intra_refresh=0 / rc=2pass / mbtree=0 / bitrate=5100 / ratetol=1.0 / qcomp=0.50qpmin=0 / qpmax=69 / qpstep=4 / cplxblur=20.0 / qblur=0.5 / ip_ratio=1.40 / pb_ratio=1.30 / aq=1:0.60Язык : SwedishDefault : ДаForced : Нет
Аудио #1Идентификатор : 2Формат : AC-3Формат/Информация : Audio Coding 3Расширение режима : CM (complete main)Параметр Endianness формата : BigИдентификатор кодека : A_AC3Продолжительность : 1 ч. 29 м.Вид битрейта : ПостоянныйБитрейт : 384 Кбит/секКаналы : 6 каналовРасположение каналов : Front: L C R, Side: L R, LFEЧастота : 48,0 КГцБитовая глубина : 16 битМетод сжатия : С потерямиРазмер потока : 246 Мбайт (5%)Заголовок : ac3 5.1 384 kbps MVO BaibakoЯзык : RussianDefault : ДаForced : Нет
Аудио #2Идентификатор : 3Формат : DTSФормат/Информация : Digital Theater SystemsРежим : 16Параметр Endianness формата : BigИдентификатор кодека : A_DTSПродолжительность : 1 ч. 29 м.Вид битрейта : ПостоянныйБитрейт : 1510 Кбит/секКаналы : 6 каналовРасположение каналов : Front: L C R, Side: L R, LFEЧастота : 48,0 КГцБитовая глубина : 16 битМетод сжатия : С потерямиРазмер потока : 967 Мбайт (18%)Заголовок : dts 5.1 1510 kbps VO AndiЯзык : RussianDefault : НетForced : Нет
Аудио #3Идентификатор : 4Формат : DTSФормат/Информация : Digital Theater SystemsРежим : 16Параметр Endianness формата : BigИдентификатор кодека : A_DTSПродолжительность : 1 ч. 29 м.Вид битрейта : ПостоянныйБитрейт : 1509 Кбит/секКаналы : 6 каналовРасположение каналов : Front: L C R, Side: L R, LFEЧастота : 48,0 КГцБитовая глубина : 24 битМетод сжатия : С потерямиРазмер потока : 966 Мбайт (18%)Заголовок : dts 5.1 1509 kbps OriginalЯзык : SwedishDefault : НетForced : Нет
Текст #1Идентификатор : 5Формат : UTF-8Идентификатор кодека : S_TEXT/UTF8Идентификатор кодека/Информация : UTF-8 Plain TextЗаголовок : Sub-fullЯзык : EnglishDefault : НетForced : Нет
Текст #2Идентификатор : 6Формат : UTF-8Идентификатор кодека : S_TEXT/UTF8Идентификатор кодека/Информация : UTF-8 Plain TextЗаголовок : Sub-fullЯзык : SwedishDefault : НетForced : Нет
Текст #3Идентификатор : 7Формат : UTF-8Идентификатор кодека : S_TEXT/UTF8Идентификатор кодека/Информация : UTF-8 Plain TextЗаголовок : Sub-fullЯзык : FinnishDefault : НетForced : Нет
Текст #4Идентификатор : 8Формат : UTF-8Идентификатор кодека : S_TEXT/UTF8Идентификатор кодека/Информация : UTF-8 Plain TextЗаголовок : Sub-fullЯзык : NorwegianDefault : НетForced : Нет
Меню00:00:00.000 : 00:00:00.00000:10:00.400 : 00:10:00.40000:20:16.000 : 00:20:16.00000:30:01.000 : 00:30:01.00000:40:00.000 : 00:40:00.00000:50:00.000 : 00:50:00.00001:00:01.000 : 01:00:01.00001:10:01.040 : 01:10:01.04001:20:00.000 : 01:20:00.00001:27:53.000 : 01:27:53.000

Видеоряд от EbP

______________. __________\_ _____/\_ |__\______ \ | __)_ | __ \| ___/ | \ | \_\ \ |/_______ / |___ /____| \/ \/
Movie InfoGENRE.........: Crime | DramaIMDB RATING...: 5.2/10 from 133 usersLINK..........: http://www.imdb.com/title/tt2183302/
Release InfoRELEASE NAME..: Studio.Sex.2012.720p.BluRay.DTS.x264-EbPRELEASE DATE..: 07/27/2012RELEASE SIZE..: 4.13 GBRUNTIME.......: 1h 29mnVIDEO CODEC...: x264, 2pass, L4.1FRAMERATE.....: 23.976 fpsBITRATE.......: 5 100 KbpsRESOLUTION....: 1200 x 720AUDIO ........: DTS @ 6ch 1509 KbpsSUBTITLES.....: Finnish,Norwegian, Swedish.CHAPTERS......: IncludedSOURCE........: Studio Sex 2012 1080i NOR Blu-ray AVC DTS-HD MA 5.1 ( thank DeadGun)
x264 Info
x264 [info]: frame I:1423 Avg QP:13.51 size:156476x264 [info]: frame P:28166 Avg QP:16.05 size: 48010x264 [info]: frame B:104687 Avg QP:17.94 size: 17629x264 [info]: consecutive B-frames: 2.1% 2.0% 7.7% 16.3% 15.1% 52.0% 2.6% 0.4% 1.4% 0.1% 0.1% 0.2%x264 [info]: mb I I16..4: 4.2% 80.5% 15.3%x264 [info]: mb P I16..4: 1.8% 11.3% 1.6% P16..4: 32.3% 37.1% 12.9% 0.0% 0.0% skip: 2.9%x264 [info]: mb B I16..4: 0.3% 1.1% 0.1% B16..8: 35.5% 21.0% 3.4% direct: 8.4% skip:30.2% L0:43.6% L1:44.4% BI:12.0%x264 [info]: 8x8 transform intra:77.0% inter:58.8%x264 [info]: direct mvs spatial:99.5% temporal:0.5%x264 [info]: coded y,uvDC,uvAC intra: 81.8% 81.9% 65.8% inter: 28.7% 36.4% 16.6%x264 [info]: i16 v,h,dc,p: 32% 14% 7% 47%x264 [info]: i8 v,h,dc,ddl,ddr,vr,hd,vl,hu: 11% 8% 8% 9% 13% 14% 12% 13% 12%x264 [info]: i4 v,h,dc,ddl,ddr,vr,hd,vl,hu: 12% 9% 8% 9% 15% 15% 11% 11% 11%x264 [info]: i8c dc,h,v,p: 43% 21% 20% 16%x264 [info]: Weighted P-Frames: Y:4.2% UV:2.4%x264 [info]: ref P L0: 45.3% 8.1% 19.7% 7.4% 6.3% 4.4% 4.0% 2.2% 2.3% 0.3% 0.0%x264 [info]: ref B L0: 72.6% 12.8% 6.1% 3.1% 2.2% 1.8% 1.0% 0.4%x264 [info]: ref B L1: 92.2% 7.8%x264 [info]: kb/s:5094.67
encoded 134276 frames, 2.49 fps, 5094.67 kb/s

Сравнение

Source Encode






Скриншоты


Other forum [Profile] [PM]
Display posts from previous:    
Reply to topic

The time now is: Today 06:00

All times are GMT + 3 Hours



You cannot post new topics in this forum
You cannot reply to topics in this forum
You cannot edit your posts in this forum
You cannot delete your posts in this forum
You cannot vote in polls in this forum
You cannot attach files in this forum
You cannot download files in this forum