Today is a free download without charge Download

Kasabian - Rock im Park [2012, Indie / Alternative Rock, HDTV 720p]

Reply to topic
 
Author
Message

Omen ®

Longevity: 8 years 4 months

Posts: 181087

Торрент-статистика

Post 26-May-2013 12:44

[Quote]

Kasabian - Rock im Park
Жанр: Indie / Alternative Rock
Продолжительность: 59:15
Год выпуска: 2012
Описание: Выступление Kasabian на фестивале Rock im Park в Нюрнберге, Германия, состоявшееся 3 июня 2012 г.
Трансляция телеканала BRHD 17 мая 2013 г. полного выступления группы.
Tracklist:
01. Days Are Forgotten
02. Velociraptor!
03. Underdog
04. Where Did All the Love Go?
05. I.D.
06. Club Foot
07. Re-Wired
08. Empire
09. L.S.F. (Lost Souls Forever)
10. Switchblade Smiles
11. Vlad the Impaler
12. Fire
Качество: HDTV 720p
Контейнер: M2TS
Видео кодек: MPEG2
Аудио кодек: AC3
Видео: MPEG-2, 1280 x 720 (16:9), 50 fps, 9113 kbps
Аудио: MPEG Audio Version 1, 48000 Hz, 16 Bit, 192 kbps, 2 channels (German)
Аудио 2: MPEG Audio Version 1, 48000 Hz, 16 Bit, 192 kbps, 2 channels
Аудио 3: AC3, 48000 Hz, 16 Bit, 448 kbps, 2 channels (German)

Отчёт MediaInfo / BDInfo

Complete name : Z:\zagruski music videos\KASABIAN\Kasabian - Rock im Park 2012 - Nuremberg, Germany - 03-JUN-2012\Kasabian_RockImPark12_Nuremberg_03-JUN-2012.m2tsFormat : BDAVFormat/Info : Blu-ray VideoFile size : 4.40 GiBDuration : 59mn 15sOverall bit rate : 10.6 MbpsMaximum Overall bit rate : 28.0 Mbps
VideoID : 208 (0xD0)Menu ID : 9044 (0x2354)Format : AVCFormat/Info : Advanced Video CodecFormat profile : [email protected] settings, CABAC : YesFormat settings, ReFrames : 2 framesCodec ID : 27Duration : 59mn 15sBit rate : 9 370 KbpsWidth : 1 280 pixelsHeight : 720 pixelsDisplay aspect ratio : 16:9Frame rate : 50.000 fpsStandard : ComponentColor space : YUVChroma subsampling : 4:2:0Bit depth : 8 bitsScan type : ProgressiveBits/(Pixel*Frame) : 0.203Stream size : 3.88 GiB (88%)
Audio #1ID : 209 (0xD1)Menu ID : 9044 (0x2354)Format : MPEG AudioFormat version : Version 1Format profile : Layer 2Codec ID : 3Duration : 59mn 15sBit rate mode : ConstantBit rate : 192 KbpsChannel(s) : 2 channelsSampling rate : 48.0 KHzCompression mode : LossyDelay relative to video : -698msStream size : 81.4 MiB (2%)Language : German
Audio #2ID : 210 (0xD2)Menu ID : 9044 (0x2354)Format : MPEG AudioFormat version : Version 1Format profile : Layer 2Codec ID : 3Duration : 59mn 15sBit rate mode : ConstantBit rate : 192 KbpsChannel(s) : 2 channelsSampling rate : 48.0 KHzCompression mode : LossyDelay relative to video : -698msStream size : 81.4 MiB (2%)
Audio #3ID : 219 (0xDB)Menu ID : 9044 (0x2354)Format : AC-3Format/Info : Audio Coding 3Mode extension : CM (complete main)Codec ID : 129Duration : 59mn 15sBit rate mode : ConstantBit rate : 448 KbpsChannel(s) : 2 channelsChannel positions : Front: L RSampling rate : 48.0 KHzBit depth : 16 bitsCompression mode : LossyDelay relative to video : -653msStream size : 190 MiB (4%)Language : German
Text #1ID : 238 (0xEE)-100Menu ID : 9044 (0x2354)Format : TeletextLanguage : German
Text #2ID : 238 (0xEE)-150Menu ID : 9044 (0x2354)Format : Teletext SubtitleLanguage : German

Скриншоты

Other forum [Profile] [PM]
Display posts from previous:    
Reply to topic

The time now is: Today 14:30

All times are GMT + 3 Hours



You cannot post new topics in this forum
You cannot reply to topics in this forum
You cannot edit your posts in this forum
You cannot delete your posts in this forum
You cannot vote in polls in this forum
You cannot attach files in this forum
You cannot download files in this forum