Today is a free download without charge Download

Самоубийцы (Егор Баранов) [2012, комедия, BDRip 1080p]

Reply to topic
 
Author
Message

Omen ®

Longevity: 8 years 5 months

Posts: 181087

Торрент-статистика

Post 26-May-2013 08:40

[Quote]

Самоубийцы
Страна: Россия
Студия: кинокомпания CTB, студия Мельница
Жанр: комедия
Год выпуска: 2012
Продолжительность: 01:29:13
Навигация по главам: есть
Субтитры: нет
Режиссер: Егор Баранов
В ролях: Евгений Стычкин, Алексей Воробьев, Оксана Акиньшина, Гоша Куценко, Вилле Хаапасало, Марат Башаров, Михаил Полицеймако, Александр Стриженов, Евгений Рахманько, Даниил Меркулов, Павел Прилучный, Виктор Супрун, Татьяна Швыдкова, Данил Лавренов, Евгений Харланов, Николай Зазуля, Константин Мурзенко
Описание: Комедия о головокружительных приключениях трех друзей — Алексея, Толика и Марины, которые решили свести счеты с жизнью. Собрав вокруг себя неприкаянных единомышленников, новые друзья решают напоследок исполнить по последнему желанию друг друга. Это, на первый взгляд, безобидное решение превращает жизнь героев в непрерывный калейдоскоп феерических событий. Чем активнее друзья исполняют самые неожиданные желания друг друга, тем невероятнее истории, в которые они попадают.

Релиз: fanatus
Качество видео: BDRip 1080p
Исходник: Blu-ray 1080i [BLUEBIRD]
Контейнер: MKV
Видео: MPEG-4 AVC, 10000 kbps , 1920x818 (2.35:1), 25.000 fps, 0.255 bit/pixel
Аудио: AC3 6 ch, 48 kHz, 640 kbps

MediaInfo

General
Unique ID : 195387618224671060440050326669314874722 (0x92FE49561B68857FA4DA03EF2F9DDD62)
Complete name : D:\Samoubijcy.2012.x264.BDRip.1080p.fanatus.mkv
Format : Matroska
Format version : Version 2
File size : 6.63 GiB
Duration : 1h 29mn
Overall bit rate : 10.6 Mbps
Movie name : Samoubiytsy (2012) - fanatus
Encoded date : UTC 2013-05-25 18:47:13
Writing application : mkvmerge v3.4.0 ('Rapunzel') сборка от May 15 2010 09:38:20
Writing library : libebml v0.8.0 + libmatroska v0.9.0
Video
ID : 1
Format : AVC
Format/Info : Advanced Video Codec
Format profile : [email protected]
Format settings, CABAC : Yes
Format settings, ReFrames : 5 frames
Codec ID : V_MPEG4/ISO/AVC
Duration : 1h 29mn
Bit rate : 10 000 Kbps
Width : 1 920 pixels
Height : 818 pixels
Display aspect ratio : 2.35:1
Frame rate : 25.000 fps
Color space : YUV
Chroma subsampling : 4:2:0
Bit depth : 8 bits
Scan type : Progressive
Bits/(Pixel*Frame) : 0.255
Stream size : 6.09 GiB (92%)
Title : Samoubiytsy (2012)
Writing library : x264 core 132 r2323+704+51 d571b1c tMod [[email protected] X86]
Encoding settings : cabac=1 / ref=5 / deblock=1:-3:-3 / analyse=0x3:0x113 / me=tesa / subme=11 / psy=1 / fade_compensate=0.00 / psy_rd=0.99:0.01 / mixed_ref=1 / me_range=48 / chroma_me=1 / trellis=2 / 8x8dct=1 / cqm=0 / deadzone=21,11 / fast_pskip=0 / chroma_qp_offset=-3 / threads=16 / lookahead_threads=4 / sliced_threads=0 / nr=0 / decimate=0 / interlaced=0 / bluray_compat=0 / constrained_intra=0 / fgo=0 / bframes=10 / b_pyramid=2 / b_adapt=2 / b_bias=0 / direct=3 / weightb=1 / open_gop=0 / weightp=2 / keyint=250 / keyint_min=25 / scenecut=40 / intra_refresh=0 / rc_lookahead=240 / rc=2pass / mbtree=0 / bitrate=10000 / ratetol=1.0 / qcomp=0.70 / qpmin=0 / qpmax=69 / qpstep=4 / cplxblur=20.0 / qblur=0.5 / vbv_maxrate=50000 / vbv_bufsize=62500 / nal_hrd=none / ip_ratio=1.30 / pb_ratio=1.20 / aq=4:0.80 / aq-sensitivity=10.00 / aq-factor=1.00:1.00:1.00 / aq2=0 / aq3=0
Language : Russian
Default : Yes
Forced : No
Audio
ID : 2
Format : AC-3
Format/Info : Audio Coding 3
Mode extension : CM (complete main)
Format settings, Endianness : Big
Codec ID : A_AC3
Duration : 1h 29mn
Bit rate mode : Constant
Bit rate : 640 Kbps
Channel(s) : 6 channels
Channel positions : Front: L C R, Side: L R, LFE
Sampling rate : 48.0 KHz
Bit depth : 16 bits
Compression mode : Lossy
Stream size : 408 MiB (6%)
Title : Original
Language : Russian
Default : Yes
Forced : No
Menu
00:00:00.000 : en:Chapter 01
00:01:40.720 : en:Chapter 02
00:08:03.280 : en:Chapter 03
00:21:37.359 : en:Chapter 04
00:30:47.440 : en:Chapter 05
00:40:09.520 : en:Chapter 06
00:51:03.280 : en:Chapter 07
01:03:37.840 : en:Chapter 08
01:14:58.960 : en:Chapter 09

x264 [info]

x264 [info]: 1920x818p 1:1 @ 25/1 fps (cfr)
x264 [info]: frame I:1129 Avg QP:14.27 size:173321
x264 [info]: frame P:33269 Avg QP:16.30 size: 80655
x264 [info]: frame B:99428 Avg QP:17.50 size: 38269
x264 [info]: consecutive B-frames: 4.4% 4.5% 19.9% 6.6% 4.7% 56.5% 1.9% 0.4% 0.6% 0.2% 0.5%
x264 [info]: mb I I16..4: 5.6% 81.4% 13.0%
x264 [info]: mb P I16..4: 3.3% 27.2% 2.5% P16..4: 27.0% 27.2% 8.5% 0.0% 0.0% skip: 4.4%
x264 [info]: mb B I16..4: 1.0% 4.9% 0.4% B16..8: 32.0% 20.3% 3.5% direct:14.4% skip:23.5% L0:40.4% L1:38.2% BI:21.4%
x264 [info]: 8x8 transform intra:80.9% inter:63.6%
x264 [info]: direct mvs spatial:97.6% temporal:2.4%
x264 [info]: coded y,uvDC,uvAC intra: 75.7% 74.2% 52.8% inter: 38.2% 38.6% 11.9%
x264 [info]: i16 v,h,dc,p: 48% 14% 5% 34%
x264 [info]: i8 v,h,dc,ddl,ddr,vr,hd,vl,hu: 14% 12% 16% 8% 8% 9% 9% 11% 12%
x264 [info]: i4 v,h,dc,ddl,ddr,vr,hd,vl,hu: 26% 11% 17% 6% 9% 9% 9% 7% 7%
x264 [info]: i8c dc,h,v,p: 26% 36% 27% 11%
x264 [info]: Weighted P-Frames: Y:2.1% UV:1.2%
x264 [info]: ref P L0: 49.3% 10.1% 21.2% 9.0% 8.6% 1.7% 0.0%
x264 [info]: ref B L0: 77.7% 15.7% 5.2% 1.4%
x264 [info]: ref B L1: 93.2% 6.8%
x264 [info]: kb/s:9989.13
x264 [info]: encoded 133826 frames, 0.8103 fps, 9989.13 kb/s, 6374.4 MB

Скриншот c названием фильма

Скриншоты

Source vs Rip



Other forum [Profile] [PM]
Display posts from previous:    
Reply to topic

The time now is: Today 13:13

All times are GMT + 3 Hours



You cannot post new topics in this forum
You cannot reply to topics in this forum
You cannot edit your posts in this forum
You cannot delete your posts in this forum
You cannot vote in polls in this forum
You cannot attach files in this forum
You cannot download files in this forum