Today is a free download without charge Download

Капитанская дочка (Екатерина Михайлова) [2005 г., Мультфильм, экранизация, DVDRip]

Reply to topic
 
Author
Message

Omen ®

Longevity: 7 years 11 months

Posts: 181087

Торрент-статистика

Post 26-May-2013 08:40

[Quote]

Капитанская дочкаСтрана: Россия
Жанр: Мультфильм, экранизация
Продолжительность: 00:28:26
Год выпуска: 2005
Выпущено: Киновидеостудия «Анимос»
Режиссёр: Екатерина Михайлова
Русские субтитры: нетОписание:Фильм снят по мотивам одноимённой повести А. С. Пушкина.
Один из лучших образцов современной российской кукольной анимации.

Режиссёр и команда

Режиссёр: Екатерина Михайлова
сценаристы: Екатерина Михайлова, Татьяна Шестакова
художник-постановщик : Нина Виноградова
аниматоры: Алла Соловьёва, Дмитрий Новосёлов, Евгения Жиркова
оператор Игорь Скидан-Босин
композитор Екатерина Комалькова
звукорежиссёр Виктор Брус
роли озвучивали: Павел Баршак, Евгений Редько, Александр Парра, Людмила Гнилова, Сергей Якубенко, Екатерина Семёнова, Василий Стоноженко, Виктор Пиунов
Качество: DVDRip
Формат: AVI
Видео: 720x496 (1.45:1), 25 fps, XviD MPEG-4 ~2389 kbps avg, 0.27 bit/pixel
Аудио: 48 kHz, AC3 Dolby Digital, 2/0 (L,R) ch, ~192 kbps
Субтитры: отсутствуют

Подробные технические данные

ОбщееПолное имя : D:\Мульты\Kapitanskaya_dochka.aviФормат : AVIФормат/Информация : Audio Video InterleaveРазмер файла : 527 МбайтПродолжительность : 28 м.Общий поток : 2591 Кбит/секПрограмма кодирования : VirtualDubMod 1.5.10.2 (build 2540/release)Библиотека кодирования : VirtualDubMod build 2540/release
ВидеоИдентификатор : 0Формат : MPEG-4 VisualПрофиль формата : Advanced [email protected]Параметр BVOP формата : 2Параметр QPel формата : НетПараметр GMC формата : Без точки переходаПараметр матрицы формата : ВыборочнаяРежим смешивания : Сжатый битовый потокИдентификатор кодека : XVIDИдентификатор кодека/Подсказка : XviDПродолжительность : 28 м.Битрейт : 2390 Кбит/секШирина : 720 пикселейВысота : 496 пикселейСоотношение сторон : 3:2Частота кадров : 25,000 кадров/секЦветовое пространство : YUVСубдискретизация насыщенности : 4:2:0Битовая глубина : 8 битТип развёртки : ПрогрессивнаяМетод сжатия : С потерямиБит/(Пиксели*Кадры) : 0.268Размер потока : 486 Мбайт (92%)Библиотека кодирования : XviD 64
АудиоИдентификатор : 1Формат : AC-3Формат/Информация : Audio Coding 3Расширение режима : CM (complete main)Идентификатор кодека : 2000Продолжительность : 28 м.Вид битрейта : ПостоянныйБитрейт : 192 Кбит/секКаналы : 2 каналаРасположение каналов : Front: L RЧастота : 48,0 КГцБитовая глубина : 16 битМетод сжатия : С потерямиРазмер потока : 39,0 Мбайт (7%)Выравнивание : Разделение по промежуткамПродолжительность промежутка : 40 мс. (1,00 видеокадр)Время предзагрузки промежутка : 500 мс.

Скриншоты


-
Other forum [Profile] [PM]
Display posts from previous:    
Reply to topic

The time now is: Today 15:48

All times are GMT + 3 Hours



You cannot post new topics in this forum
You cannot reply to topics in this forum
You cannot edit your posts in this forum
You cannot delete your posts in this forum
You cannot vote in polls in this forum
You cannot attach files in this forum
You cannot download files in this forum