Today is a free download without charge Download

Просто неотразима / Simply Irresistible (Марк Тарлов / Mark Tarlov) [1999 г., мелодрама, BDRemux 1080p] MVOx3 + Original (Eng) + Subs (Eng)

Reply to topic
 
Author
Message

Omen ®

Longevity: 8 years 5 months

Posts: 181087

Торрент-статистика

Post 26-May-2013 00:25

[Quote]

Просто неотразима / Simply Irresistible

-
-Страна: США
Студия: Polar Entertainment Corporation, Taurus Film, New Regency Pictures
Жанр: мелодрама
Год выпуска: 1999
Продолжительность:01:35:49--Перевод 1: Профессиональный (многоголосый закадровый) ТНТ
Перевод 2: Профессиональный (многоголосый закадровый) SDI Media
Перевод 3: Профессиональный (многоголосый закадровый) НТВ+
Cубтитры: английские SDH
Оригинальная аудиодорожка: английский--Режиссер: Марк Тарлов / Mark Tarlov
В ролях: Сара Мишель Геллар, Шон Патрик Флэнери, Патришия Кларксон, Дилан Бэйкер, Ларри Джиллиард мл., Кристофер Дуранг, Бетти Бакли, Олек Крупа, Аманда Пит, Алекс Дрэйпер, Гэбриел Махт--Описание: Иногда самым сильным оружием является доброта, исходящая прямо из сердца. Прекрасный ресторанчик Аманды, исключительно красивой девушки, которая не стесняется своих эмоций, встал с ног на голову при появлении честолюбивого и амбициозного красавчика Тома Бартлетта.
Может показаться, что Аманда и Том ничего не имеют общего друг с другом. И Том не сразу осознал, что Аманда — та самая девушка, о которой он мечтал всю жизнь.--imdb | kinopoisk | Сэмпл--Тип релиза: BDRemux 1080p [Simply.Irresistible.1999.COMPLETE.BLURAY-LAZERS]
Контейнер: MKV
Видео: MPEG-4 AVC / 25007 kbps / 1920x1080 / 23,976 fps / 16:9 / High Profile 4.1
Аудио 1: AC3 / 2.0 / 48 kHz / 192 kbps / 16 bits |ТНТ|
Аудио 2: AC3 / 2.0 / 48 kHz / 192 kbps / 16 bits |SDI Media|
Аудио 3: AC3 / 2.0 / 48 kHz / 192 kbps / 16 bits |НТВ+|
Аудио 4: DTS-HD Master Audio / 2.0 / 48 kHz / 1085 kbps / 16 bits (DTS Core: 2.0 / 48 kHz / 768 kbps / 16 bits) |original|
Формат субтитров: softsub [SRT]

MediaInfo

ОбщееУникальный идентификатор : 176302109987133705381775799917659896768 (0x84A28D213AAC8439A5CA9904C0593BC0)Полное имя : G:\HD\Просто неотразима.1999.Blu-Ray.Remux.(1080p).mkvФормат : MatroskaВерсия формата : Version 2Размер файла : 17,8 ГбайтПродолжительность : 1 ч. 35 м.Режим общего битрейта : ПеременныйОбщий поток : 26,6 Мбит/секДата кодирования : UTC 2013-05-25 19:16:55Программа кодирования : mkvmerge v5.8.0 ('No Sleep / Pillow') built on Sep 2 2012 15:37:04Библиотека кодирования : libebml v1.2.3 + libmatroska v1.3.0
ВидеоИдентификатор : 1Формат : AVCФормат/Информация : Advanced Video CodecПрофиль формата : [email protected]Параметр CABAC формата : ДаПараметр ReFrames формата : 4 кадраРежим смешивания : Container [email protected]Идентификатор кодека : V_MPEG4/ISO/AVCПродолжительность : 1 ч. 35 м.Вид битрейта : ПеременныйМаксимальный битрейт : 38,0 Мбит/секШирина : 1920 пикселейВысота : 1080 пикселейСоотношение сторон : 16:9Режим частоты кадров : ПостоянныйЧастота кадров : 23,976 кадра/секЦветовое пространство : YUVСубдискретизация насыщенности : 4:2:0Битовая глубина : 8 битТип развёртки : ПрогрессивнаяDefault : ДаForced : Нет
Аудио #1Идентификатор : 2Формат : AC-3Формат/Информация : Audio Coding 3Расширение режима : CM (complete main)Параметр Endianness формата : BigИдентификатор кодека : A_AC3Продолжительность : 1 ч. 35 м.Вид битрейта : ПостоянныйБитрейт : 192 Кбит/секКаналы : 2 каналаРасположение каналов : Front: L RЧастота : 48,0 КГцБитовая глубина : 16 битМетод сжатия : С потерямиРазмер потока : 132 Мбайт (1%)Заголовок : ТНТЯзык : RussianDefault : ДаForced : Нет
Аудио #2Идентификатор : 3Формат : AC-3Формат/Информация : Audio Coding 3Расширение режима : CM (complete main)Параметр Endianness формата : BigИдентификатор кодека : A_AC3Продолжительность : 1 ч. 35 м.Вид битрейта : ПостоянныйБитрейт : 192 Кбит/секКаналы : 2 каналаРасположение каналов : Front: L RЧастота : 48,0 КГцБитовая глубина : 16 битМетод сжатия : С потерямиРазмер потока : 132 Мбайт (1%)Заголовок : SDI MediaЯзык : RussianDefault : НетForced : Нет
Аудио #3Идентификатор : 4Формат : AC-3Формат/Информация : Audio Coding 3Расширение режима : CM (complete main)Параметр Endianness формата : BigИдентификатор кодека : A_AC3Продолжительность : 1 ч. 35 м.Вид битрейта : ПостоянныйБитрейт : 192 Кбит/секКаналы : 2 каналаРасположение каналов : Front: L RЧастота : 48,0 КГцБитовая глубина : 16 битМетод сжатия : С потерямиРазмер потока : 132 Мбайт (1%)Заголовок : НТВ+Язык : RussianDefault : НетForced : Нет
Аудио #4Идентификатор : 5Формат : DTSФормат/Информация : Digital Theater SystemsПрофиль формата : MA / CoreРежим : 16Параметр Endianness формата : BigИдентификатор кодека : A_DTSПродолжительность : 1 ч. 35 м.Вид битрейта : ПеременныйБитрейт : Неизвестно / 768 Кбит/секКаналы : 2 каналаРасположение каналов : Front: L RЧастота : 48,0 КГцБитовая глубина : 16 битМетод сжатия : Без потерь / LossyЯзык : EnglishDefault : НетForced : Нет
ТекстИдентификатор : 6Формат : UTF-8Идентификатор кодека : S_TEXT/UTF8Идентификатор кодека/Информация : UTF-8 Plain TextЯзык : EnglishDefault : НетForced : Нет
Меню00:00:00.000 : :Chapter 0100:10:38.721 : :Chapter 0200:21:47.681 : :Chapter 0300:30:36.125 : :Chapter 0400:41:10.301 : :Chapter 0500:50:07.671 : :Chapter 0601:01:32.689 : :Chapter 0701:10:54.250 : :Chapter 0801:20:46.758 : :Chapter 09

Скриншоты


Дополнительно

Цитата:
Русские дорожки взяты с этой раздачи, thx: Diablo
Оригинальная 5.1 дорожка оказалась на блюрей диске дутой, оригинальная речь помимо центра была во всех каналах, кроме LFE. Пересобрал в 2.0
Other forum [Profile] [PM]

Dracula

Longevity: 7 years 5 months

Posts: 11216

Торрент-статистика

Post 26-May-2013 12:17 (after 11 hours)

Топик был перенесен из форума Зарубежное кино (HD Video) в форум Зарубежное кино


kogesan
 

konoalla

Longevity: 7 years 5 months

Posts: 2

Торрент-статистика

Post 15-Oct-2013 20:46 (after 4 months 20 days)

[Quote]

По ссылке на скачивание находится не фильм, а исполняемые файлы .exe
Actual Window Manager v 6.6 Final (2011MLRUS)
Other forum [Profile] [PM]
Similar theme
Forum Topic Author Torrent Replies Last Post
./templates/default/images/folder_dl.gif Документальные фильмы и телепередачи Я просто живу... Вечер-посвящение Микаэлу Таривердиеву (2012) IPTVRip от Files-x Omen
0 | 1

0 | 796

0

2013-01-30 04:43
Omen Latest
./templates/default/images/folder_dl.gif Техническая и научно-популярная литература Э.Б.Кузнецов | Звуковая аппаратура для простых систем звукоусиления [2012] [PDF] UndegraundMen
1 | 0

0 | 875

0

2013-08-04 17:03
UndegraundMen Latest
./templates/default/images/folder_dl.gif Техническая и научно-популярная литература О.В.Головин, С.П.Простов | Системы и устройства коротковолновой радиосвязи [2006] [DJVU] UndegraundMen
1 | 0

0 | 790

1

2013-08-29 11:00
UndegraundMen Latest
./templates/default/images/folder_dl.gif Современная проза, классика, поэзия Вишневский Януш - Прости… [Валерий Кухарешин, 2016 г., 128 kbps, MP3] Omen
1 | 0

0 | 570

0

2016-07-22 01:01
Omen Latest
./templates/default/images/folder_dl.gif Компьютерная литература А.А. Борисенко | Web-дизайн. Просто как дважды два (2008) [PDF] }{@R0N
1 | 0

0 | 603

2

2018-12-16 20:32
}{@R0N Latest
Display posts from previous:    
Reply to topic

The time now is: Today 09:33

All times are GMT + 3 Hours



You cannot post new topics in this forum
You cannot reply to topics in this forum
You cannot edit your posts in this forum
You cannot delete your posts in this forum
You cannot vote in polls in this forum
You cannot attach files in this forum
You cannot download files in this forum