Today is a free download without charge Download

Seether: Triple Threat Live [2012, Post-grunge, Alternative metal, HDTV 1080i]

Reply to topic
 
Author
Message

Omen ®

Longevity: 8 years 3 months

Posts: 181087

Торрент-статистика

Post 26-May-2013 00:25

[Quote]

Seether: Triple Threat Live
-Жанр: Post-grunge, Alternative metal
Продолжительность: 1:12:00
Год выпуска: 2012-Описание: South-African hit-makers Seether, light up the stage with a hard-rocking performance in Minneapolis on AXS TV-Качество: HDTV 1080i
Контейнер: TS
Видео кодек: MPEG2
Аудио кодек: AC3-Видео: MPEG2, 1920x1080 (16:9), 16600 kbps, 29.970 frames/s
Аудио: English AC-3 5.1 @ 384kbps 44.1 Khz-

Отчёт MediaInfo / BDInfo

GeneralID : 1 (0x1)Complete name : Seether - Triple Threat Live 1080i HDTV DD5.1 MPEG2-TrollHD.tsFormat : MPEG-TSFile size : 9.01 GiBDuration : 1h 12mnOverall bit rate mode : VariableOverall bit rate : 17.9 Mbps
VideoID : 524 (0x20C)Menu ID : 1 (0x1)Format : MPEG VideoFormat version : Version 2Format profile : [email protected] settings, BVOP : YesFormat settings, Matrix : CustomFormat settings, GOP : M=3, N=15Codec ID : 2Duration : 1h 12mnBit rate mode : VariableBit rate : 16.6 MbpsMaximum bit rate : 65.0 MbpsWidth : 1 920 pixelsHeight : 1 080 pixelsDisplay aspect ratio : 16:9Frame rate : 29.970 fpsColor space : YUVChroma subsampling : 4:2:0Bit depth : 8 bitsScan type : InterlacedScan order : Top Field FirstCompression mode : LossyBits/(Pixel*Frame) : 0.267Stream size : 8.37 GiB (93%)
AudioID : 523 (0x20B)Menu ID : 1 (0x1)Format : AC-3Format/Info : Audio Coding 3Mode extension : CM (complete main)Format settings, Endianness : BigCodec ID : 129Duration : 1h 12mnBit rate mode : ConstantBit rate : 384 KbpsChannel(s) : 6 channelsChannel positions : Front: L C R, Side: L R, LFESampling rate : 48.0 KHzBit depth : 16 bitsCompression mode : LossyStream size : 198 MiB (2%)Language : English

-

Скриншоты


-
Other forum [Profile] [PM]
Display posts from previous:    
Reply to topic

The time now is: Today 07:55

All times are GMT + 3 Hours



You cannot post new topics in this forum
You cannot reply to topics in this forum
You cannot edit your posts in this forum
You cannot delete your posts in this forum
You cannot vote in polls in this forum
You cannot attach files in this forum
You cannot download files in this forum