Today is a free download without charge Download

Могамбо / Mogambo (Джон Форд) (1953, Драма, Мелодрама, Приключения) DVDRip [H.264]

Reply to topic
 
Author
Message

UndegraundMen ®

Longevity: 8 years 8 months

Posts: 25145

Торрент-статистика

Post 26-May-2013 00:00

[Quote]

Могамбо / Mogambo (1953) DVDRip [H.264] -«Actually filmed by M-G-M on safari...amid authentic scenes of unrivalled savagery and awe-inspiring splendor!»- Русское название: Могамбо
Оригинальное название: Mogambo
Год выпуска: 1953
Жанр: Драма, Мелодрама, Приключения
Страна: США
Производство: Loew's Inc.
Описание фильма:
Кения, центральная Африка. Профессиональный охотник и авантюрист Виктор Марсуэлл помогает группам туристов и антропологов преодолевать бескрайние просторы саванны и непроходимые заросли черного континента. Во время одной из экспедиций он встречает Келли, танцовщицу из варьете, которая намного младше его.
Между ними завязывается бурный роман, который будет прерван прибытием в поселок семейной пары Нордли. Антрополог Доналд и его чопорная, и на вид неприступная, жена Линда, прибыли для изучения жизни горилл и шимпанзе. Любвеобильный Виктор решает приударить за неприступной женой ученого и не безуспешно. Этот авантюрный поступок причинит боль Келли, но приведет к неожиданной развязке в сложившемся любовном треугольнике.
Режиссер: Джон Форд
Сценарий: Джон Ли Мэхин, Уилсон Коллисон
Продюсер: Сэм Цимбалист
Актеры: Кларк Гейбл, Ава Гарднер, Грэйс Келли, Дональд Синден, Филип Стейнтон, Эрик Польман, Лоуренс Нэйсмит, Денис О’Ди, Самбуру, Вагения
Продолжительность: 01:51:15
Перевод: Многоголосый закадровый
Субтитры: Отсутствуют

Дата мировой премьеры: 23 сентября 1953
Видеокодек: MPEG-4 AVC/H.264
Битрейт видео: ~1850 Кбит/сек
Размер кадра: 720x544
Качество видео: DVDRip
Аудиокодек: AC3 2.0
Битрейт аудио: 448 kbps

Реценция с кинопоиска от Angelika:

«Могамбо» — это весьма интересный, красивый, захватывающий фильм, но посмотреть эту картину я захотела не из-за прекрасной природы Африки, а из-за мощного актерского состава.
Перед просмотром я предполагала, что это будет средняя мелодрама с привычным «хэппи эндом», но все оказалось совершенно иначе. Эту картину можно назвать скорее сильной драмой с элементами комедии, поскольку игра таких непревзойденных актеров никак не вписывается в один жанр. Мощное трио, состоящее из Авы Гарднер, Кларка Гейбла и Грейс Келли не оставляет равнодушным. Эти актеры создали настолько яркие, сильные, неповторимые образы, что у зрителя не возникает чувства фальши. Все ясно, правдоподобно и так, как должно быть.
Что же касается непосредственно самого сюжета, то здесь все очень банально и это можно описать двумя словами: любовный треугольник. Но кого же выберет главный герой? Интрига не покидает зрителя ни на минуту, до самых титров, но сама кульминация настолько сильная, что после просмотра фильма чувствуешь себя эмоциональным банкротом.
На мой взгляд, картина «Могамбо» получилась очень сильной и захватывающей. Думаю, поклонникам драматических историй обязательно понравится.
10 из 10

Награды:

Оскар, 1954 год
Номинации (2):
Лучшая женская роль (Ава Гарднер)
Лучшая женская роль второго плана (Грэйс Келли)
Британская академия, 1954 год
Номинации (1):
Лучший фильм

MediaInfo:

General
Unique ID : 174946739747298948216018735581663647651 (0x839D8437B865DBA89448499C5098D7A3)
Complete name : H:\Downloads\Могамбо.mkv
Format : Matroska
Format version : Version 4 / Version 2
File size : 1.79 GiB
Duration : 1h 51mn
Overall bit rate : 2 300 Kbps
Encoded date : UTC 2013-05-20 21:21:04
Writing application : mkvmerge v6.0.0 ('Coming Up For Air') built on Jan 20 2013 09:52:00
Writing library : libebml v1.3.0 + libmatroska v1.4.0
Video
ID : 1
Format : AVC
Format/Info : Advanced Video Codec
Format profile : [url=mailto:[email protected]][email protected][/url]
Format settings, CABAC : Yes
Format settings, ReFrames : 8 frames
Codec ID : V_MPEG4/ISO/AVC
Duration : 1h 51mn
Bit rate : 1 850 Kbps
Width : 720 pixels
Height : 544 pixels
Display aspect ratio : 4:3
Frame rate mode : Constant
Frame rate : 25.000 fps
Color space : YUV
Chroma subsampling : 4:2:0
Bit depth : 8 bits
Scan type : Progressive
Bits/(Pixel*Frame) : 0.189
Stream size : 1.40 GiB (79%)
Title : Mogambo
Writing library : x264 core 125 r2208 d9d2288
Encoding settings : cabac=1 / ref=8 / deblock=1:-1:-1 / analyse=0x3:0x133 / me=umh / subme=9 / psy=1 / psy_rd=1.00:0.10 / mixed_ref=1 / me_range=32 / chroma_me=1 / trellis=2 / 8x8dct=1 / cqm=0 / deadzone=21,11 / fast_pskip=0 / chroma_qp_offset=-3 / threads=6 / lookahead_threads=1 / sliced_threads=0 / nr=0 / decimate=1 / interlaced=0 / bluray_compat=0 / constrained_intra=0 / bframes=3 / b_pyramid=2 / b_adapt=2 / b_bias=0 / direct=3 / weightb=1 / open_gop=0 / weightp=2 / keyint=250 / keyint_min=25 / scenecut=40 / intra_refresh=0 / rc_lookahead=60 / rc=2pass / mbtree=1 / bitrate=1850 / ratetol=1.0 / qcomp=0.60 / qpmin=10 / qpmax=51 / qpstep=4 / cplxblur=20.0 / qblur=0.5 / ip_ratio=1.40 / aq=1:1.00
Language : English
Default : Yes
Forced : No
Audio
ID : 2
Format : AC-3
Format/Info : Audio Coding 3
Mode extension : CM (complete main)
Format settings, Endianness : Big
Codec ID : A_AC3
Duration : 1h 51mn
Bit rate mode : Constant
Bit rate : 448 Kbps
Channel(s) : 2 channels
Channel positions : Front: L R
Sampling rate : 48.0 KHz
Bit depth : 16 bits
Compression mode : Lossy
Stream size : 357 MiB (19%)
Title : Многоголосый закадровый
Language : Russian
Default : Yes
Forced : No
Скриншоты: Время раздачи: с 13:00 до 01:00 по Москве (выходные круглосуточно), до 10 скачавших
Other forum [Profile] [PM]
Display posts from previous:    
Reply to topic

The time now is: Today 13:55

All times are GMT + 3 Hours



You cannot post new topics in this forum
You cannot reply to topics in this forum
You cannot edit your posts in this forum
You cannot delete your posts in this forum
You cannot vote in polls in this forum
You cannot attach files in this forum
You cannot download files in this forum