Today is a free download without charge Download

Blur Parklive - Live At Hyde Park 2012 (Hightlights) [Alternative Rock / Britpop, HDTV 1080i]

Reply to topic
 
Author
Message

Omen ®

Longevity: 8 years 3 months

Posts: 181087

Торрент-статистика

Post 25-May-2013 20:16

[Quote]

Blur Parklive - Live At Hyde Park 2012 (Highlights)
Жанр: Alternative Rock / Britpop
Продолжительность: 58мин 15сек
Год выпуска: 2012
Описание: The band's headline performance at the Olympic Closing Ceremony Celebration Concert in London's Hyde Park last August, when they performed tracks including Beetlebum, Coffee & TV, Song 2, Parklife and Girls & Boys, as well as Under the Westway, which was written especially for the gig.
Треклист:
01. Girls and Boys
02. Beetlebum
03. Coffee & TV
04. Young and Lovely
05. Trimm Trabb
06. Parklife (Featuring Phil Daniels)
07. Song 2
08. No Distance Left To Run
09. Tender
10. Under The Westway
11. End Of A Century
12. The Universal
Качество: HDTV 1080i
Контейнер: MKV
Видео кодек: H.264
Аудио кодек: AC3
Видео: Cod.: V_MPEG4/ISO/AVC, 1920x1080i, 14.7 Mbps, 25 fps
Аудио: AC3, Chann. 6: 3F2R/LFE, SR:48 KHz, BR: 384 Kb/s

МедиаИнфо/Скриншоты

Отчёт MediaInfo

GeneralComplete name : Blur Parklive.mkvFormat : MatroskaFile size : 6.25 GiBDuration : 58mn 15sOverall bit rate : 15.4 MbpsWriting library : libebml v1.2.2 + libmatroska v1.3.0
VideoID : 1Format : AVCFormat/Info : Advanced Video CodecFormat profile : [email protected] settings, CABAC : YesFormat settings, ReFrames : 4 framesFormat settings, GOP : M=1, N=24Muxing mode : Container [email protected] ID : V_MPEG4/ISO/AVCDuration : 58mn 15sBit rate : 14.7 MbpsWidth : 1 920 pixelsHeight : 1 080 pixelsDisplay aspect ratio : 16:9Frame rate : 25.000 fpsColor space : YUVChroma subsampling : 4:2:0Bit depth : 8 bitsScan type : InterlacedScan order : Top Field FirstBits/(Pixel*Frame) : 0.283Stream size : 5.97 GiB (96%)Color primaries : BT.709-5, BT.1361, IEC 61966-2-4, SMPTE RP177Transfer characteristics : BT.709-5, BT.1361Matrix coefficients : BT.709-5, BT.1361, IEC 61966-2-4 709, SMPTE RP177
AudioID : 2Format : AC-3Format/Info : Audio Coding 3Mode extension : CM (complete main)Codec ID : A_AC3Duration : 58mn 15sBit rate mode : ConstantBit rate : 384 KbpsChannel(s) : 6 channelsChannel positions : Front: L C R, Side: L R, LFESampling rate : 48.0 KHzVideo delay : 27msStream size : 160 MiB (3%)
Other forum [Profile] [PM]
Display posts from previous:    
Reply to topic

The time now is: Today 20:55

All times are GMT + 3 Hours



You cannot post new topics in this forum
You cannot reply to topics in this forum
You cannot edit your posts in this forum
You cannot delete your posts in this forum
You cannot vote in polls in this forum
You cannot attach files in this forum
You cannot download files in this forum