Today is a free download without charge Download

Сказка о царе Салтане. Сборник мультфильмов(Лев Мильчин, Валерий Угаров, Инесса Ковал) [1965 - 1984,Детский, анимация] DVDRip [Сказка о царе Салтане, Сказка о попе и о работнике его Балде, Как один мужик двух генералов прокормил, Шкатулка с секретом]

Reply to topic
 
Author
Message

sashau ®

Gender:

Longevity: 8 years 10 months

Posts: 3497

Торрент-статистика

Post 25-May-2013 15:12

[Quote]

Сказка о царе Салтане. Сборник мультфильмов - Русское название: Сказка о царе Салтане. Сборник мультфильмов
Год: 1965 - 1984
Студия: Союзмультфильм, СССР
Жанр: Детский
Субтитры: отсутствуют
Режиссер: Лев Мильчин, Валерий Угаров, Инесса Ковалевская, Иван Иванов-Вано
Описание:
Сказки - это то, что остается у каждого человека от детства. Подарите себе шанс вновь возвратиться в волшебный мир, созданный А. С. Пушкиным.
Продолжительность: 01:39:43
Качество видео: DVDRip
Формат видео: AVI
Видео: MPEG4, XviD, 720x544 (4/3), 25.000 fps, ~1 974 Kbps (0.202 bit/pixel)
Аудио: MP3, 48.0 KHz, 2 ch, 113 Kbps, VBR

МедиаИнфо:

Видео
Идентификатор : 0
Формат : MPEG-4 Visual
Профиль формата : Advanced [email protected]
Параметр BVOP формата : 1
Параметр QPel формата : Нет
Параметр GMC формата : Без точки перехода
Параметр матрицы формата : Выборочная
Идентификатор кодека : XVID
Идентификатор кодека/Подсказка : XviD
Продолжительность : 24 м.
Битрейт : 1614 Кбит/сек
Ширина : 720 пикс.
Высота : 544 пикс.
Соотношение сторон : 4:3
Частота кадров : 25,000 кадр/сек
Цветовое пространство : YUV
Подвыборка цветности : 4:2:0
Битовая глубина : 8 бит
Тип развёртки : Прогрессивная
Метод сжатия : С потерями
Бит/(Пиксели*Кадры) : 0.165
Размер потока : 278 Мбайт (93%)
Библиотека кодирования : XviD 1.2.1 (UTC 2008-12-04)
Аудио
Идентификатор : 1
Формат : MPEG Audio
Версия формата : Version 1
Профиль формата : Layer 3
Режим : Joint stereo
Расширение режима : MS Stereo
Идентификатор кодека : 55
Идентификатор кодека/Подсказка : MP3
Продолжительность : 24 м.
Вид битрейта : Переменный
Битрейт : 114 Кбит/сек
Номинальный битрейт : 128 Кбит/сек
Канал(ы) : 2 канала(ов)
Частота : 48,0 КГц
Метод сжатия : С потерями
Задержка видео : 168 мс.
Размер потока : 19,6 Мбайт (7%)
Выравнивание : Разделение по промежуткам
Продолжительность промежутка : 24 мс. (0,60 видеокадр)
Время предзагрузки промежутка : 680 ms
Библиотека кодирования : LAME3.98r
Настройки программы : -m j -V 4 -q 2 -lowpass 17 --abr 128
Полная реставрация изображенияСкриншоты:
       
     
Other forum [Profile] [PM]
Display posts from previous:    
Reply to topic

The time now is: Today 19:47

All times are GMT + 3 Hours



You cannot post new topics in this forum
You cannot reply to topics in this forum
You cannot edit your posts in this forum
You cannot delete your posts in this forum
You cannot vote in polls in this forum
You cannot attach files in this forum
You cannot download files in this forum