Today is a free download without charge Download

Винни Пух ( Федор Хитрук, Геннадий Сокольский)[1969-1972,Рисованная анимация] DVDRip

Reply to topic
 
Author
Message

sashau ®

Gender:

Longevity: 8 years 10 months

Posts: 3497

Торрент-статистика

Post 25-May-2013 14:24

[Quote]

Винни Пух - Название: Винни Пух
Год выпуска: 1969-1972
Жанр: Рисованная анимация
Страна: СССР
Описание:
Хотите узнать, где роятся дикие пчелы? Какой прок от горшочка, если в нем закончился мед? И какую вкуснятину можно отведать в гостях у кролика? Ответы на эти вопросы знают игрушечные зверушки - добродушный медвежонок Винни-Пух и его лучший друг Пятачок - герои сказочной повести английского писателя А.А.Милна (1882-1956), с которыми российские читатели познакомились благодаря изумительному переводу известного детского писателя Бориса Заходера. Кинематографическое рождение Винни-Пуху и его друзьям дал Федор Хитрук - мэтр отечественного мультипликационного кино - и его единомышленники - творческая группа, с которой создавалась знаменитая трилогия, в первую очередь, художники постановщики Владимир Зуйков и Эдуард Назаров.
В сборник вошли мультфильмы:
1. Винни-Пух.
2. Винни-Пух идет в гости.
3. Винни-Пух и день забот
Режиссер: Федор Хитрук, Геннадий Сокольский
Персонажи: Винни-Пух, Пятачек, Кролик, Сава, ослик Иа-Иа
Продолжительность: 00:39:42
Видеокодек: DivX 5
Битрейт видео: ~1 100 Kbps
Размер кадра: 720*576
Качество видео: DVDRip
Аудиокодек: AC3 2.0
Битрейт аудио: ~128 Kbps

MediaInfo

Общее
Полное имя : H:\Vinni.Puh(1964-1972).avi
Формат : DivX
Формат/Информация : Hack of AVI
Размер файла : 352 Мбайт
Продолжительность : 39 м.
Общий поток : 1238 Кбит/сек
Видео
Идентификатор : 0
Формат : MPEG-4 Visual
Параметр BVOP формата : 1
Параметр QPel формата : Нет
Параметр GMC формата : Без точки перехода
Параметр матрицы формата : Default (H.263)
Режим смешивания : Сжатый битовый поток
Идентификатор кодека : DX50
Идентификатор кодека/Подсказка : DivX 5
Продолжительность : 39 м.
Битрейт : 1100 Кбит/сек
Ширина : 720 пикселей
Высота : 576 пикселей
Соотношение сторон : 5:4
Частота кадров : 25,000 кадров/сек
Стандарт вещания : PAL
Цветовое пространство : YUV
Субдискретизация насыщенности : 4:2:0
Битовая глубина : 8 бит
Тип развёртки : Прогрессивная
Метод сжатия : С потерями
Бит/(Пиксели*Кадры) : 0.106
Размер потока : 313 Мбайт (89%)
Заголовок : Main
Библиотека кодирования : DivX 6.2.0 (UTC 2006-04-11)
Аудио
Идентификатор : 1
Формат : AC-3
Формат/Информация : Audio Coding 3
Расширение режима : CM (complete main)
Идентификатор кодека : 2000
Продолжительность : 39 м.
Вид битрейта : Постоянный
Битрейт : 128 Кбит/сек
Каналы : 2 канала
Расположение каналов : Front: L R
Частота : 48,0 КГц
Битовая глубина : 16 бит
Метод сжатия : С потерями
Размер потока : 36,4 Мбайт (10%)
Выравнивание : Разделение по промежуткам
Продолжительность промежутка : 40 мс. (1,00 видеокадр)
Время предзагрузки промежутка : 500 мс.
Заголовок : Audio - ru
Скриншоты:
         
         
Other forum [Profile] [PM]
Display posts from previous:    
Reply to topic

The time now is: Today 18:11

All times are GMT + 3 Hours



You cannot post new topics in this forum
You cannot reply to topics in this forum
You cannot edit your posts in this forum
You cannot delete your posts in this forum
You cannot vote in polls in this forum
You cannot attach files in this forum
You cannot download files in this forum