Today is a free download without charge Download

Афанасий (Дмитрий Наумов)[2011,Детский, Сказка] WEB-DLRip [5 серий из 5]

Reply to topic
 
Author
Message

sashau ®

Gender:

Longevity: 8 years 10 months

Posts: 3497

Торрент-статистика

Post 25-May-2013 14:20

[Quote]

Афанасий - Русское название: Афанасий
Год выпуска: 2011
Жанр: Детский, Сказка
Вид субтитров: Отсутствуют
Режиссер: Дмитрий Наумов
Описание фильма:
Пять коротких историй познакомят юных зрителей со знаменитым русским купцом Афанасием Никитиным, который отправился за три моря и стал первым европейцем в Индии. Цикл короткометражных мультфильмов, посвященных событиям далекого 1471 года.
Продолжительность: 5 х ~ 00:05:00
Качество видео: WEB-DLRip
Видео: MPEG4, XviD, 720x540 (4:3), 25.000 fps, 1 993 Kbps (0.205 bit/pixel)
Аудио: MP3, 44.1 KHz, 2 ch, 32.0 Kbps, CBR

МедиаИнфо:

Видео
Идентификатор : 0
Формат : MPEG-4 Visual
Профиль формата : [email protected]
Параметр BVOP формата : Нет
Параметр QPel формата : Нет
Параметр GMC формата : Без точки перехода
Параметр матрицы формата : Default (H.263)
Идентификатор кодека : XVID
Идентификатор кодека/Подсказка : XviD
Продолжительность : 5 м. 1 с.
Битрейт : 1993 Кбит/сек
Ширина : 720 пикселей
Высота : 540 пикселей
Соотношение сторон : 4:3
Частота кадров : 25,000 кадров/сек
Цветовое пространство : YUV
Субдискретизация насыщенности : 4:2:0
Битовая глубина : 8 бит
Тип развёртки : Прогрессивная
Метод сжатия : С потерями
Бит/(Пиксели*Кадры) : 0.205
Размер потока : 71,6 Мбайт (91%)
Библиотека кодирования : XviD 1.2.1 (UTC 2008-12-04)
Аудио
Идентификатор : 1
Формат : MPEG Audio
Версия формата : Version 1
Профиль формата : Layer 3
Режим : Joint stereo
Расширение режима : MS Stereo
Идентификатор кодека : 55
Идентификатор кодека/Подсказка : MP3
Продолжительность : 5 м. 0 с.
Вид битрейта : Постоянный
Битрейт : 32,0 Кбит/сек
Каналы : 2 канала
Частота : 44,1 КГц
Метод сжатия : С потерями
Размер потока : 6,67 Мбайт (8%)
Выравнивание : Соединение по промежуткам
Продолжительность промежутка : 26 мс. (0,65 видеокадр)
Время предзагрузки промежутка : 89 мс.
Библиотека кодирования : LAME3.98.4

Список серий:

1. Как Афанасий путешественником стал
2. Как Афанасий живой журнал завел
3. Как Афанасий камень-болтун получил
4. Как Афанасий Колумбу дорогу показал
5. Как Афанасий Шахерезаду спас
Скриншоты:
         
         
Other forum [Profile] [PM]
Display posts from previous:    
Reply to topic

The time now is: Today 23:08

All times are GMT + 3 Hours



You cannot post new topics in this forum
You cannot reply to topics in this forum
You cannot edit your posts in this forum
You cannot delete your posts in this forum
You cannot vote in polls in this forum
You cannot attach files in this forum
You cannot download files in this forum