Today is a free download without charge Download

Маша и Медведь (серии: 1-18 из ?) (Олег Кузовков, Олег Ужинов, Денис Червяцов) [2009-2011г., мультфильм, комедия, семейный, HD 720p, BDRemux 1080р]

Reply to topic
 
Author
Message

nsa1977 ®

Gender:

Longevity: 10 years

Posts: 1470

Location: Пенза

Торрент-статистика

Post 04-Aug-2011 20:30

[Quote]

Маша и Медведь
серии: 1-18 из ?

Год выпуска: 2009-2011г.
Страна: Россия
Жанр: мультфильм, комедия, семейный
Продолжительность: 18 x ~ 00:07:00
Режиссер: Олег Кузовков, Олег Ужинов, Денис Червяцов
Продюссер: Андрей Добрунов, Дмитрий Ловейко, Олег Кузовков
Сценарий: Олег Кузовков--В ролях: Алина Кукушкина, Эдуард Назаров, Борис Кутневич-- --Описание: Мультсериал про девочку Машу, которая никому не дает покоя, и в первую очередь — своему другу Медведю.
Сериал рассчитан в первую очередь на детскую аудиторию от 3 до 9 лет. Тем не менее мультфильм семейный, интересный для всех возрастов, взрослые тоже могут посмеяться над приключениями Маши и Медведя. Несмотря на то, что персонажи для зрителя являются знакомыми с детства по русской народной сказке, предполагается некоторая адаптация зрительского восприятия к новой трактовке старой истории — персонажи живут в наше время, их быт, хоть и абсурден, но современен, их отношения — это отношения не девочки и зверя, а ребенка и взрослого, маленького человечка и огромного мира.--Качество: BDRemux 1080р
Подробнее смотри - MediainFo
Контейнер: m2ts
Видео: 1920x1080, 24.00fps, 24.5 Mbps
Аудио: DTS 48000Hz 6ch 1536kbps-Маша и медведь.Большая стирка в avi
Качество: HD 720p
Видео: (XviD), h264, 1280x720, 7000 kbps, 25.000 fps
Аудио: AC3, 2 ch, 192 kbps--

Список серий


2009 год
1. «Первая встреча»
2. «До весны не будить!»
3. «Раз, два, три! Ёлочка, гори!»
4. «Весна пришла!»
5. «Ловись рыбка!»
6. «Следы невиданных зверей»
2010 год
7. «С волками жить…»
8. «Позвони мне, позвони!»
9. «День варенья»
10. «Праздник на льду»
11. «Первый раз в первый класс»
12. «Граница на замке»
13. «Кто не спрятался, я не виноват!»
2011 год
14. «Лыжню!»
15. «Будьте здоровы!»
16. «Маша + каша»
17. «Дальний родственник»
18. «Большая стирка»

MediainFo


01.Маша и медведь.Первая встреча


General
ID : 1 (0x1)
Complete name Masha.i.Medved_МТ01.Маша и медведь.Первая встреча.m2ts
Format : BDAV
Format/Info : Blu-ray Video
File size : 1.30 GiB
Duration : 6mn 53s
Overall bit rate : 27.1 Mbps
Maximum Overall bit rate : 35.5 Mbps
Video
ID : 4113 (0x1011)
Menu ID : 1 (0x1)
Format : AVC
Format/Info : Advanced Video Codec
Format profile : [email protected]
Format settings, CABAC : Yes
Format settings, ReFrames : 4 frames
Codec ID : 27
Duration : 6mn 53s
Bit rate mode : Variable
Bit rate : 24.5 Mbps
Maximum bit rate : 30.0 Mbps
Width : 1 920 pixels
Height : 1 080 pixels
Display aspect ratio : 16:9
Frame rate : 24.000 fps
Standard : NTSC
Color space : YUV
Chroma subsampling : 4:2:0
Bit depth : 8 bits
Scan type : Progressive
Bits/(Pixel*Frame) : 0.492
Stream size : 1.18 GiB (90%)
Color primaries : BT.709-5, BT.1361, IEC 61966-2-4, SMPTE RP177
Transfer characteristics : BT.709-5, BT.1361
Matrix coefficients : BT.709-5, BT.1361, IEC 61966-2-4 709, SMPTE RP177
Audio
ID : 4352 (0x1100)
Menu ID : 1 (0x1)
Format : DTS
Format/Info : Digital Theater Systems
Codec ID : 130
Duration : 6mn 53s
Bit rate mode : Constant
Bit rate : 1 510 Kbps
Channel(s) : 6 channels
Channel positions : Front: L C R, Side: L R, LFE
Sampling rate : 48.0 KHz
Bit depth : 24 bits
Compression mode : Lossy
Stream size : 74.3 MiB (6%)
Language : Russian

02.Маша и медведь.До весны не будить!

General
ID : 1 (0x1)
Complete name Masha.i.Medved_МТ02.Маша и медведь.До весны не будить!.m2ts
Format : BDAV
Format/Info : Blu-ray Video
File size : 1.13 GiB
Duration : 6mn 53s
Overall bit rate : 23.5 Mbps
Maximum Overall bit rate : 35.5 Mbps
Video
ID : 4113 (0x1011)
Menu ID : 1 (0x1)
Format : AVC
Format/Info : Advanced Video Codec
Format profile : [email protected]
Format settings, CABAC : Yes
Format settings, ReFrames : 4 frames
Codec ID : 27
Duration : 6mn 53s
Bit rate mode : Variable
Bit rate : 21.1 Mbps
Maximum bit rate : 30.0 Mbps
Width : 1 920 pixels
Height : 1 080 pixels
Display aspect ratio : 16:9
Frame rate : 24.000 fps
Standard : NTSC
Color space : YUV
Chroma subsampling : 4:2:0
Bit depth : 8 bits
Scan type : Progressive
Bits/(Pixel*Frame) : 0.424
Stream size : 1.02 GiB (90%)
Color primaries : BT.709-5, BT.1361, IEC 61966-2-4, SMPTE RP177
Transfer characteristics : BT.709-5, BT.1361
Matrix coefficients : BT.709-5, BT.1361, IEC 61966-2-4 709, SMPTE RP177
Audio
ID : 4352 (0x1100)
Menu ID : 1 (0x1)
Format : DTS
Format/Info : Digital Theater Systems
Codec ID : 130
Duration : 6mn 53s
Bit rate mode : Constant
Bit rate : 1 510 Kbps
Channel(s) : 6 channels
Channel positions : Front: L C R, Side: L R, LFE
Sampling rate : 48.0 KHz
Bit depth : 24 bits
Compression mode : Lossy
Stream size : 74.4 MiB (6%)
Language : Russian

03.Маша и медведь.Раз, два, три! Елочка, гори!

: General
ID : 1 (0x1)
Complete name Masha.i.Medved_МТ03.Маша и медведь.Раз, два, три! Елочка, гори!.m2ts
Format : BDAV
Format/Info : Blu-ray Video
File size : 1.40 GiB
Duration : 8mn 6s
Overall bit rate : 24.8 Mbps
Maximum Overall bit rate : 35.5 Mbps
Video
ID : 4113 (0x1011)
Menu ID : 1 (0x1)
Format : AVC
Format/Info : Advanced Video Codec
Format profile : [email protected]
Format settings, CABAC : Yes
Format settings, ReFrames : 4 frames
Codec ID : 27
Duration : 8mn 6s
Bit rate mode : Variable
Bit rate : 22.3 Mbps
Maximum bit rate : 30.0 Mbps
Width : 1 920 pixels
Height : 1 080 pixels
Display aspect ratio : 16:9
Frame rate : 24.000 fps
Standard : NTSC
Color space : YUV
Chroma subsampling : 4:2:0
Bit depth : 8 bits
Scan type : Progressive
Bits/(Pixel*Frame) : 0.447
Stream size : 1.26 GiB (90%)
Color primaries : BT.709-5, BT.1361, IEC 61966-2-4, SMPTE RP177
Transfer characteristics : BT.709-5, BT.1361
Matrix coefficients : BT.709-5, BT.1361, IEC 61966-2-4 709, SMPTE RP177
Audio
ID : 4352 (0x1100)
Menu ID : 1 (0x1)
Format : DTS
Format/Info : Digital Theater Systems
Codec ID : 130
Duration : 8mn 6s
Bit rate mode : Constant
Bit rate : 1 510 Kbps
Channel(s) : 6 channels
Channel positions : Front: L C R, Side: L R, LFE
Sampling rate : 48.0 KHz
Bit depth : 24 bits
Compression mode : Lossy
Stream size : 87.5 MiB (6%)
Language : Russian

04.Маша и медведь.Весна пришла!

General
ID : 1 (0x1)
Complete name Masha.i.Medved_МТ04.Маша и медведь.Весна пришла!.m2ts
Format : BDAV
Format/Info : Blu-ray Video
File size : 1.27 GiB
Duration : 7mn 1s
Overall bit rate : 25.9 Mbps
Maximum Overall bit rate : 35.5 Mbps
Video
ID : 4113 (0x1011)
Menu ID : 1 (0x1)
Format : AVC
Format/Info : Advanced Video Codec
Format profile : [email protected]
Format settings, CABAC : Yes
Format settings, ReFrames : 4 frames
Codec ID : 27
Duration : 7mn 1s
Bit rate mode : Variable
Bit rate : 23.3 Mbps
Maximum bit rate : 30.0 Mbps
Width : 1 920 pixels
Height : 1 080 pixels
Display aspect ratio : 16:9
Frame rate : 24.000 fps
Standard : NTSC
Color space : YUV
Chroma subsampling : 4:2:0
Bit depth : 8 bits
Scan type : Progressive
Bits/(Pixel*Frame) : 0.469
Stream size : 1.14 GiB (90%)
Color primaries : BT.709-5, BT.1361, IEC 61966-2-4, SMPTE RP177
Transfer characteristics : BT.709-5, BT.1361
Matrix coefficients : BT.709-5, BT.1361, IEC 61966-2-4 709, SMPTE RP177
Audio
ID : 4352 (0x1100)
Menu ID : 1 (0x1)
Format : DTS
Format/Info : Digital Theater Systems
Codec ID : 130
Duration : 7mn 1s
Bit rate mode : Constant
Bit rate : 1 510 Kbps
Channel(s) : 6 channels
Channel positions : Front: L C R, Side: L R, LFE
Sampling rate : 48.0 KHz
Bit depth : 24 bits
Compression mode : Lossy
Stream size : 75.9 MiB (6%)
Language : Russian

05.Маша и медведь.Ловись, рыбка!

General
ID : 1 (0x1)
Complete name Masha.i.Medved_МТ05.Маша и медведь.Ловись, рыбка!.m2ts
Format : BDAV
Format/Info : Blu-ray Video
File size : 1.35 GiB
Duration : 6mn 55s
Overall bit rate : 27.8 Mbps
Maximum Overall bit rate : 35.5 Mbps
Video
ID : 4113 (0x1011)
Menu ID : 1 (0x1)
Format : AVC
Format/Info : Advanced Video Codec
Format profile : [email protected]
Format settings, CABAC : Yes
Format settings, ReFrames : 4 frames
Codec ID : 27
Duration : 6mn 55s
Bit rate mode : Variable
Bit rate : 25.2 Mbps
Maximum bit rate : 30.0 Mbps
Width : 1 920 pixels
Height : 1 080 pixels
Display aspect ratio : 16:9
Frame rate : 24.000 fps
Standard : NTSC
Color space : YUV
Chroma subsampling : 4:2:0
Bit depth : 8 bits
Scan type : Progressive
Bits/(Pixel*Frame) : 0.506
Stream size : 1.22 GiB (91%)
Color primaries : BT.709-5, BT.1361, IEC 61966-2-4, SMPTE RP177
Transfer characteristics : BT.709-5, BT.1361
Matrix coefficients : BT.709-5, BT.1361, IEC 61966-2-4 709, SMPTE RP177
Audio
ID : 4352 (0x1100)
Menu ID : 1 (0x1)
Format : DTS
Format/Info : Digital Theater Systems
Codec ID : 130
Duration : 6mn 55s
Bit rate mode : Constant
Bit rate : 1 510 Kbps
Channel(s) : 6 channels
Channel positions : Front: L C R, Side: L R, LFE
Sampling rate : 48.0 KHz
Bit depth : 24 bits
Compression mode : Lossy
Stream size : 74.8 MiB (5%)
Language : Russian

06.Маша и медведь.Следы невиданных зверей

General
ID : 1 (0x1)
Complete name Masha.i.Medved_МТ06.Маша и медведь.Следы невиданных зверей.m2ts
Format : BDAV
Format/Info : Blu-ray Video
File size : 1.42 GiB
Duration : 7mn 17s
Overall bit rate : 27.9 Mbps
Maximum Overall bit rate : 35.5 Mbps
Video
ID : 4113 (0x1011)
Menu ID : 1 (0x1)
Format : AVC
Format/Info : Advanced Video Codec
Format profile : [email protected]
Format settings, CABAC : Yes
Format settings, ReFrames : 4 frames
Codec ID : 27
Duration : 7mn 17s
Bit rate mode : Variable
Bit rate : 25.2 Mbps
Maximum bit rate : 30.0 Mbps
Width : 1 920 pixels
Height : 1 080 pixels
Display aspect ratio : 16:9
Frame rate : 24.000 fps
Standard : NTSC
Color space : YUV
Chroma subsampling : 4:2:0
Bit depth : 8 bits
Scan type : Progressive
Bits/(Pixel*Frame) : 0.507
Stream size : 1.28 GiB (91%)
Color primaries : BT.709-5, BT.1361, IEC 61966-2-4, SMPTE RP177
Transfer characteristics : BT.709-5, BT.1361
Matrix coefficients : BT.709-5, BT.1361, IEC 61966-2-4 709, SMPTE RP177
Audio
ID : 4352 (0x1100)
Menu ID : 1 (0x1)
Format : DTS
Format/Info : Digital Theater Systems
Codec ID : 130
Duration : 7mn 17s
Bit rate mode : Constant
Bit rate : 1 510 Kbps
Channel(s) : 6 channels
Channel positions : Front: L C R, Side: L R, LFE
Sampling rate : 48.0 KHz
Bit depth : 24 bits
Compression mode : Lossy
Stream size : 78.7 MiB (5%)
Language : Russian

07.Маша и медведь.С волками жить...

General
ID : 1 (0x1)
Complete name Masha.i.Medved_МТ07.Маша и медведь.С волками жить...m2ts
Format : BDAV
Format/Info : Blu-ray Video
File size : 1.32 GiB
Duration : 7mn 13s
Overall bit rate : 26.2 Mbps
Maximum Overall bit rate : 35.5 Mbps
Video
ID : 4113 (0x1011)
Menu ID : 1 (0x1)
Format : AVC
Format/Info : Advanced Video Codec
Format profile : [email protected]
Format settings, CABAC : Yes
Format settings, ReFrames : 4 frames
Codec ID : 27
Duration : 7mn 13s
Bit rate mode : Variable
Bit rate : 23.6 Mbps
Maximum bit rate : 30.0 Mbps
Width : 1 920 pixels
Height : 1 080 pixels
Display aspect ratio : 16:9
Frame rate : 24.000 fps
Standard : NTSC
Color space : YUV
Chroma subsampling : 4:2:0
Bit depth : 8 bits
Scan type : Progressive
Bits/(Pixel*Frame) : 0.475
Stream size : 1.19 GiB (90%)
Color primaries : BT.709-5, BT.1361, IEC 61966-2-4, SMPTE RP177
Transfer characteristics : BT.709-5, BT.1361
Matrix coefficients : BT.709-5, BT.1361, IEC 61966-2-4 709, SMPTE RP177
Audio
ID : 4352 (0x1100)
Menu ID : 1 (0x1)
Format : DTS
Format/Info : Digital Theater Systems
Codec ID : 130
Duration : 7mn 13s
Bit rate mode : Constant
Bit rate : 1 510 Kbps
Channel(s) : 6 channels
Channel positions : Front: L C R, Side: L R, LFE
Sampling rate : 48.0 KHz
Bit depth : 24 bits
Compression mode : Lossy
Stream size : 78.0 MiB (6%)
Language : Russian

08.Маша и медведь.Позвони мне, позвони...

General
ID : 1 (0x1)
Complete name Masha.i.Medved_МТ08.Маша и медведь.Позвони мне, позвони...m2ts
Format : BDAV
Format/Info : Blu-ray Video
File size : 1.39 GiB
Duration : 7mn 11s
Overall bit rate : 27.7 Mbps
Maximum Overall bit rate : 35.5 Mbps
Video
ID : 4113 (0x1011)
Menu ID : 1 (0x1)
Format : AVC
Format/Info : Advanced Video Codec
Format profile : [email protected]
Format settings, CABAC : Yes
Format settings, ReFrames : 4 frames
Codec ID : 27
Duration : 7mn 11s
Bit rate mode : Variable
Bit rate : 25.1 Mbps
Maximum bit rate : 30.0 Mbps
Width : 1 920 pixels
Height : 1 080 pixels
Display aspect ratio : 16:9
Frame rate : 24.000 fps
Standard : NTSC
Color space : YUV
Chroma subsampling : 4:2:0
Bit depth : 8 bits
Scan type : Progressive
Bits/(Pixel*Frame) : 0.504
Stream size : 1.26 GiB (91%)
Color primaries : BT.709-5, BT.1361, IEC 61966-2-4, SMPTE RP177
Transfer characteristics : BT.709-5, BT.1361
Matrix coefficients : BT.709-5, BT.1361, IEC 61966-2-4 709, SMPTE RP177
Audio
ID : 4352 (0x1100)
Menu ID : 1 (0x1)
Format : DTS
Format/Info : Digital Theater Systems
Codec ID : 130
Duration : 7mn 11s
Bit rate mode : Constant
Bit rate : 1 510 Kbps
Channel(s) : 6 channels
Channel positions : Front: L C R, Side: L R, LFE
Sampling rate : 48.0 KHz
Bit depth : 24 bits
Compression mode : Lossy
Stream size : 77.6 MiB (5%)
Language : Russian

09.Маша и медведь.День варенья

General
ID : 1 (0x1)
Complete name Masha.i.Medved_МТ09.Маша и медведь.День варенья.m2ts
Format : BDAV
Format/Info : Blu-ray Video
File size : 1.34 GiB
Duration : 6mn 50s
Overall bit rate : 28.0 Mbps
Maximum Overall bit rate : 35.5 Mbps
Video
ID : 4113 (0x1011)
Menu ID : 1 (0x1)
Format : AVC
Format/Info : Advanced Video Codec
Format profile : [email protected]
Format settings, CABAC : Yes
Format settings, ReFrames : 4 frames
Codec ID : 27
Duration : 6mn 50s
Bit rate mode : Variable
Bit rate : 25.4 Mbps
Maximum bit rate : 35.0 Mbps
Width : 1 920 pixels
Height : 1 080 pixels
Display aspect ratio : 16:9
Frame rate : 24.000 fps
Standard : NTSC
Color space : YUV
Chroma subsampling : 4:2:0
Bit depth : 8 bits
Scan type : Progressive
Bits/(Pixel*Frame) : 0.510
Stream size : 1.21 GiB (91%)
Language : Russian
Color primaries : BT.709-5, BT.1361, IEC 61966-2-4, SMPTE RP177
Transfer characteristics : BT.709-5, BT.1361
Matrix coefficients : BT.709-5, BT.1361, IEC 61966-2-4 709, SMPTE RP177
Audio
ID : 4352 (0x1100)
Menu ID : 1 (0x1)
Format : DTS
Format/Info : Digital Theater Systems
Codec ID : 130
Duration : 6mn 50s
Bit rate mode : Constant
Bit rate : 1 510 Kbps
Channel(s) : 2 channels
Channel positions : Front: L R
Sampling rate : 48.0 KHz
Bit depth : 24 bits
Compression mode : Lossy
Stream size : 73.8 MiB (5%)
Language : Russian

10.Маша и медведь.Праздник на льду

General
ID : 1 (0x1)
Complete name Masha.i.Medved_МТ10.Маша и медведь.Праздник на льду.m2ts
Format : BDAV
Format/Info : Blu-ray Video
File size : 1.37 GiB
Duration : 6mn 52s
Overall bit rate : 28.5 Mbps
Maximum Overall bit rate : 35.5 Mbps
Video
ID : 4113 (0x1011)
Menu ID : 1 (0x1)
Format : AVC
Format/Info : Advanced Video Codec
Format profile : [email protected]
Format settings, CABAC : Yes
Format settings, ReFrames : 4 frames
Codec ID : 27
Duration : 6mn 52s
Bit rate mode : Variable
Bit rate : 25.9 Mbps
Maximum bit rate : 35.0 Mbps
Width : 1 920 pixels
Height : 1 080 pixels
Display aspect ratio : 16:9
Frame rate : 24.000 fps
Standard : NTSC
Color space : YUV
Chroma subsampling : 4:2:0
Bit depth : 8 bits
Scan type : Progressive
Bits/(Pixel*Frame) : 0.519
Stream size : 1.24 GiB (91%)
Language : Russian
Color primaries : BT.709-5, BT.1361, IEC 61966-2-4, SMPTE RP177
Transfer characteristics : BT.709-5, BT.1361
Matrix coefficients : BT.709-5, BT.1361, IEC 61966-2-4 709, SMPTE RP177
Audio
ID : 4352 (0x1100)
Menu ID : 1 (0x1)
Format : DTS
Format/Info : Digital Theater Systems
Codec ID : 130
Duration : 6mn 52s
Bit rate mode : Constant
Bit rate : 1 510 Kbps
Channel(s) : 2 channels
Channel positions : Front: L R
Sampling rate : 48.0 KHz
Bit depth : 24 bits
Compression mode : Lossy
Stream size : 74.2 MiB (5%)
Language : Russian

11.Маша и медведь.Первый раз в первый класс

General
ID : 1 (0x1)
Complete name Masha.i.Medved_МТ11.Маша и медведь.Первый раз в первый класс.m2ts
Format : BDAV
Format/Info : Blu-ray Video
File size : 1.36 GiB
Duration : 6mn 51s
Overall bit rate : 28.4 Mbps
Maximum Overall bit rate : 35.5 Mbps
Video
ID : 4113 (0x1011)
Menu ID : 1 (0x1)
Format : AVC
Format/Info : Advanced Video Codec
Format profile : [email protected]
Format settings, CABAC : Yes
Format settings, ReFrames : 4 frames
Codec ID : 27
Duration : 6mn 51s
Bit rate mode : Variable
Bit rate : 25.8 Mbps
Maximum bit rate : 35.0 Mbps
Width : 1 920 pixels
Height : 1 080 pixels
Display aspect ratio : 16:9
Frame rate : 24.000 fps
Standard : NTSC
Color space : YUV
Chroma subsampling : 4:2:0
Bit depth : 8 bits
Scan type : Progressive
Bits/(Pixel*Frame) : 0.518
Stream size : 1.24 GiB (91%)
Language : Russian
Color primaries : BT.709-5, BT.1361, IEC 61966-2-4, SMPTE RP177
Transfer characteristics : BT.709-5, BT.1361
Matrix coefficients : BT.709-5, BT.1361, IEC 61966-2-4 709, SMPTE RP177
Audio
ID : 4352 (0x1100)
Menu ID : 1 (0x1)
Format : DTS
Format/Info : Digital Theater Systems
Codec ID : 130
Duration : 6mn 45s
Bit rate mode : Constant
Bit rate : 1 510 Kbps
Channel(s) : 2 channels
Channel positions : Front: L R
Sampling rate : 48.0 KHz
Bit depth : 24 bits
Compression mode : Lossy
Stream size : 72.9 MiB (5%)
Language : Russian

12.Маша и медведь.Граница на замке

General
ID : 1 (0x1)
Complete name Masha.i.Medved_МТ12.Маша и медведь.Граница на замке.m2ts
Format : BDAV
Format/Info : Blu-ray Video
File size : 1.17 GiB
Duration : 6mn 59s
Overall bit rate : 24.0 Mbps
Maximum Overall bit rate : 35.5 Mbps
Video
ID : 4113 (0x1011)
Menu ID : 1 (0x1)
Format : AVC
Format/Info : Advanced Video Codec
Format profile : [email protected]
Format settings, CABAC : Yes
Format settings, ReFrames : 4 frames
Codec ID : 27
Duration : 6mn 59s
Bit rate mode : Variable
Bit rate : 21.5 Mbps
Maximum bit rate : 35.0 Mbps
Width : 1 920 pixels
Height : 1 080 pixels
Display aspect ratio : 16:9
Frame rate : 24.000 fps
Standard : NTSC
Color space : YUV
Chroma subsampling : 4:2:0
Bit depth : 8 bits
Scan type : Progressive
Bits/(Pixel*Frame) : 0.432
Stream size : 1.05 GiB (90%)
Language : Russian
Color primaries : BT.709-5, BT.1361, IEC 61966-2-4, SMPTE RP177
Transfer characteristics : BT.709-5, BT.1361
Matrix coefficients : BT.709-5, BT.1361, IEC 61966-2-4 709, SMPTE RP177
Audio
ID : 4352 (0x1100)
Menu ID : 1 (0x1)
Format : DTS
Format/Info : Digital Theater Systems
Codec ID : 130
Duration : 6mn 59s
Bit rate mode : Constant
Bit rate : 1 510 Kbps
Channel(s) : 2 channels
Channel positions : Front: L R
Sampling rate : 48.0 KHz
Bit depth : 24 bits
Compression mode : Lossy
Stream size : 75.5 MiB (6%)
Language : Russian

13.Маша и медведь.Кто не спрятался я не виноват

General
ID : 1 (0x1)
Complete name Masha.i.Medved_МТ13.Маша и медведь.Кто не спрятался я не виноват.m2ts
Format : BDAV
Format/Info : Blu-ray Video
File size : 1.15 GiB
Duration : 6mn 41s
Overall bit rate : 24.5 Mbps
Maximum Overall bit rate : 35.5 Mbps
Video
ID : 4113 (0x1011)
Menu ID : 1 (0x1)
Format : AVC
Format/Info : Advanced Video Codec
Format profile : [email protected]
Format settings, CABAC : Yes
Format settings, ReFrames : 4 frames
Codec ID : 27
Duration : 6mn 40s
Bit rate mode : Variable
Bit rate : 22.0 Mbps
Maximum bit rate : 35.0 Mbps
Width : 1 920 pixels
Height : 1 080 pixels
Display aspect ratio : 16:9
Frame rate : 24.000 fps
Standard : NTSC
Color space : YUV
Chroma subsampling : 4:2:0
Bit depth : 8 bits
Scan type : Progressive
Bits/(Pixel*Frame) : 0.442
Stream size : 1.03 GiB (90%)
Language : Russian
Color primaries : BT.709-5, BT.1361, IEC 61966-2-4, SMPTE RP177
Transfer characteristics : BT.709-5, BT.1361
Matrix coefficients : BT.709-5, BT.1361, IEC 61966-2-4 709, SMPTE RP177
Audio
ID : 4352 (0x1100)
Menu ID : 1 (0x1)
Format : DTS
Format/Info : Digital Theater Systems
Codec ID : 130
Duration : 6mn 41s
Bit rate mode : Constant
Bit rate : 1 510 Kbps
Channel(s) : 2 channels
Channel positions : Front: L R
Sampling rate : 48.0 KHz
Bit depth : 24 bits
Compression mode : Lossy
Stream size : 72.3 MiB (6%)
Language : Russian

14.Маша и медведь.Лыжню

General
Unique ID : 216444072915204166661949223078508472476 (0xA2D59CB4A23EC4E1AA3B69516C0DA89C)
Complete name Masha.i.Medved_МТ14.Маша и медведь.Лыжню.m2ts
Format : Matroska
Format version : Version 2
File size : 1.41 GiB
Duration : 6mn 59s
Overall bit rate : 28.8 Mbps
Encoded date : UTC 2011-03-02 05:48:11
Writing application : mkvmerge v4.0.0 ('The Stars were mine') сборка от Jun 11 2010 23:24:27
Writing library : libebml v1.0.0 + libmatroska v1.0.0
Video
ID : 1
Format : AVC
Format/Info : Advanced Video Codec
Format profile : [email protected]
Format settings, CABAC : Yes
Format settings, ReFrames : 4 frames
Codec ID : V_MPEG4/ISO/AVC
Duration : 6mn 59s
Bit rate mode : Variable
Maximum bit rate : 35.0 Mbps
Width : 1 920 pixels
Height : 1 080 pixels
Display aspect ratio : 16:9
Frame rate : 24.000 fps
Standard : NTSC
Color space : YUV
Chroma subsampling : 4:2:0
Bit depth : 8 bits
Scan type : Progressive
Title : Серия 14 [Лыжню!]
Language : Russian
Color primaries : BT.709-5, BT.1361, IEC 61966-2-4, SMPTE RP177
Transfer characteristics : BT.709-5, BT.1361
Matrix coefficients : BT.709-5, BT.1361, IEC 61966-2-4 709, SMPTE RP177
Audio #1
ID : 2
Format : AC-3
Format/Info : Audio Coding 3
Mode extension : CM (complete main)
Codec ID : A_AC3
Duration : 6mn 59s
Bit rate mode : Constant
Bit rate : 256 Kbps
Channel(s) : 2 channels
Channel positions : Front: L R
Sampling rate : 48.0 KHz
Bit depth : 16 bits
Compression mode : Lossy
Stream size : 12.8 MiB (1%)
Title : AC3, 2/0 (L,R) 256.00 kbps
Language : Russian
Audio #2
ID : 3
Format : DTS
Format/Info : Digital Theater Systems
Format profile : MA / Core
Codec ID : A_DTS
Duration : 6mn 59s
Bit rate mode : Variable
Bit rate : 1 558 Kbps / 1 510 Kbps
Channel(s) : 2 channels
Channel positions : Front: L R
Sampling rate : 48.0 KHz
Bit depth : 24 bits
Compression mode : Lossless / Lossy
Title : DTS-HD MA, 2/0 (L,R) ~1587.00 kbps
Language : Russian
Audio #3
ID : 4
Format : PCM
Codec ID : A_PCM/INT/LIT
Duration : 6mn 59s
Bit rate mode : Constant
Channel(s) : 2 channels
Sampling rate : 48.0 KHz
Bit depth : 24 bits
Title : LPCM, 2/0 (L,R) 2304.00 kbps
Language : Russian

15.Маша и медведь.Будьте здоровы!

General
ID : 1 (0x1)
Complete name Masha.i.Medved_МТ15.Маша и медведь.Будьте здоровы!.m2ts
Format : BDAV
Format/Info : Blu-ray Video
File size : 1.34 GiB
Duration : 6mn 58s
Overall bit rate : 27.4 Mbps
Maximum Overall bit rate : 35.5 Mbps
Video
ID : 4113 (0x1011)
Menu ID : 1 (0x1)
Format : AVC
Format/Info : Advanced Video Codec
Format profile : [email protected]
Format settings, CABAC : Yes
Format settings, ReFrames : 4 frames
Codec ID : 27
Duration : 6mn 58s
Bit rate mode : Variable
Bit rate : 24.8 Mbps
Maximum bit rate : 35.0 Mbps
Width : 1 920 pixels
Height : 1 080 pixels
Display aspect ratio : 16:9
Frame rate : 24.000 fps
Standard : NTSC
Color space : YUV
Chroma subsampling : 4:2:0
Bit depth : 8 bits
Scan type : Progressive
Bits/(Pixel*Frame) : 0.499
Stream size : 1.21 GiB (90%)
Language : Russian
Color primaries : BT.709-5, BT.1361, IEC 61966-2-4, SMPTE RP177
Transfer characteristics : BT.709-5, BT.1361
Matrix coefficients : BT.709-5, BT.1361, IEC 61966-2-4 709, SMPTE RP177
Audio
ID : 4352 (0x1100)
Menu ID : 1 (0x1)
Format : DTS
Format/Info : Digital Theater Systems
Codec ID : 130
Duration : 6mn 58s
Bit rate mode : Constant
Bit rate : 1 510 Kbps
Channel(s) : 2 channels
Channel positions : Front: L R
Sampling rate : 48.0 KHz
Bit depth : 24 bits
Compression mode : Lossy
Stream size : 75.3 MiB (5%)
Language : Russian

16.Маша и медведь.Маша + каша

General
ID : 1 (0x1)
Complete name Masha.i.Medved_МТ16.Маша и медведь.Маша + каша.m2ts
Format : BDAV
Format/Info : Blu-ray Video
File size : 1.33 GiB
Duration : 6mn 51s
Overall bit rate : 27.7 Mbps
Maximum Overall bit rate : 35.5 Mbps
Video
ID : 4113 (0x1011)
Menu ID : 1 (0x1)
Format : AVC
Format/Info : Advanced Video Codec
Format profile : [email protected]
Format settings, CABAC : Yes
Format settings, ReFrames : 4 frames
Codec ID : 27
Duration : 6mn 52s
Bit rate mode : Variable
Bit rate : 25.1 Mbps
Maximum bit rate : 35.0 Mbps
Width : 1 920 pixels
Height : 1 080 pixels
Display aspect ratio : 16:9
Frame rate : 24.000 fps
Standard : NTSC
Color space : YUV
Chroma subsampling : 4:2:0
Bit depth : 8 bits
Scan type : Progressive
Bits/(Pixel*Frame) : 0.504
Stream size : 1.20 GiB (91%)
Language : Russian
Color primaries : BT.709-5, BT.1361, IEC 61966-2-4, SMPTE RP177
Transfer characteristics : BT.709-5, BT.1361
Matrix coefficients : BT.709-5, BT.1361, IEC 61966-2-4 709, SMPTE RP177
Audio
ID : 4352 (0x1100)
Menu ID : 1 (0x1)
Format : DTS
Format/Info : Digital Theater Systems
Codec ID : 130
Duration : 6mn 52s
Bit rate mode : Constant
Bit rate : 1 510 Kbps
Channel(s) : 2 channels
Channel positions : Front: L R
Sampling rate : 48.0 KHz
Bit depth : 24 bits
Compression mode : Lossy
Stream size : 74.2 MiB (5%)
Language : Russian

17.Маша и медведь.Дальний родственник

General
ID : 1 (0x1)
Complete name Masha.i.Medved_МТ17.Маша и медведь.Дальний родственник.m2ts
Format : BDAV
Format/Info : Blu-ray Video
File size : 1.36 GiB
Duration : 6mn 58s
Overall bit rate : 27.8 Mbps
Maximum Overall bit rate : 35.5 Mbps
Video
ID : 4113 (0x1011)
Menu ID : 1 (0x1)
Format : AVC
Format/Info : Advanced Video Codec
Format profile : [email protected]
Format settings, CABAC : Yes
Format settings, ReFrames : 4 frames
Codec ID : 27
Duration : 6mn 58s
Bit rate mode : Variable
Bit rate : 25.2 Mbps
Maximum bit rate : 35.0 Mbps
Width : 1 920 pixels
Height : 1 080 pixels
Display aspect ratio : 16:9
Frame rate : 24.000 fps
Standard : NTSC
Color space : YUV
Chroma subsampling : 4:2:0
Bit depth : 8 bits
Scan type : Progressive
Bits/(Pixel*Frame) : 0.507
Stream size : 1.23 GiB (91%)
Language : Russian
Color primaries : BT.709-5, BT.1361, IEC 61966-2-4, SMPTE RP177
Transfer characteristics : BT.709-5, BT.1361
Matrix coefficients : BT.709-5, BT.1361, IEC 61966-2-4 709, SMPTE RP177
Audio
ID : 4352 (0x1100)
Menu ID : 1 (0x1)
Format : DTS
Format/Info : Digital Theater Systems
Codec ID : 130
Duration : 6mn 58s
Bit rate mode : Constant
Bit rate : 1 510 Kbps
Channel(s) : 2 channels
Channel positions : Front: L R
Sampling rate : 48.0 KHz
Bit depth : 24 bits
Compression mode : Lossy
Stream size : 75.4 MiB (5%)
Language : Russian

Внимание

18.Маша и медведь.Большая стирка в avi (как только появится BDRemux 1080 - обновлю)
Качество: HD 720p
Видео: (XviD), h264, 1280x720, 7000 kbps
Аудио: AC3, 2 ch, 192 kbps
mediainfo
General
Complete name Masha.i.Medved_МТ18.Маша и медведь.Большая стирка.avi
Format : AVI
Format/Info : Audio Video Interleave
File size : 349 MiB
Duration : 6mn 46s
Overall bit rate : 7 215 Kbps
Writing application : VirtualDubMod 1.5.10.3 | www.virtualdub-fr.org || (build 2550/release)
Writing library : VirtualDubMod build 2550/release
Video
ID : 0
Format : AVC
Format/Info : Advanced Video Codec
Format profile : [email protected]
Format settings, CABAC : Yes
Format settings, ReFrames : 8 frames
Codec ID : h264
Duration : 6mn 46s
Bit rate : 7 000 Kbps
Width : 1 280 pixels
Height : 720 pixels
Display aspect ratio : 16:9
Frame rate : 25.000 fps
Color space : YUV
Chroma subsampling : 4:2:0
Bit depth : 8 bits
Scan type : Progressive
Bits/(Pixel*Frame) : 0.304
Stream size : 339 MiB (97%)
Writing library : x264 core 115 r1936 7a9e08d
Encoding settings : cabac=1 / ref=8 / deblock=1:-1:-1 / analyse=0x3:0x133 / me=umh / subme=10 / psy=1 / psy_rd=0.40:0.00 / mixed_ref=1 / me_range=24 / chroma_me=1 / trellis=2 / 8x8dct=1 / cqm=0 / deadzone=21,11 / fast_pskip=0 / chroma_qp_offset=-2 / threads=6 / sliced_threads=0 / nr=0 / decimate=1 / interlaced=0 / bluray_compat=0 / constrained_intra=0 / bframes=16 / b_pyramid=2 / b_adapt=1 / b_bias=0 / direct=3 / weightb=0 / open_gop=0 / weightp=2 / keyint=250 / keyint_min=25 / scenecut=40 / intra_refresh=0 / rc_lookahead=60 / rc=2pass / mbtree=1 / bitrate=7000 / ratetol=1.0 / qcomp=0.70 / qpmin=0 / qpmax=69 / qpstep=4 / cplxblur=20.0 / qblur=0.5 / ip_ratio=1.40 / aq=1:0.60
Audio
ID : 1
Format : AC-3
Format/Info : Audio Coding 3
Mode extension : CM (complete main)
Codec ID : 2000
Duration : 6mn 46s
Bit rate mode : Constant
Bit rate : 192 Kbps
Channel(s) : 2 channels
Channel positions : Front: L R
Sampling rate : 48.0 KHz
Bit depth : 16 bits
Compression mode : Lossy
Stream size : 9.29 MiB (3%)
Alignment : Split accross interleaves
Interleave, duration : 40 ms (1.00 video frame)
Interleave, preload duration : 500 msскрины 18 серии
   

Внимание! Раздача ведётся путём добавления новых серий!


Раздача ведётся путём добавления новых серий; при каждом добавлении создётся новый торрент.
Чтобы начать докачку новой серии, пользователям необходимо сделать следующее:
(1) остановить скачивание
(2) удалить старый торрент у себя из клиента (старые серии удалять не надо)
(3) скачать новый торрент и запустить его у себя в клиенте вместо старого, при этом указать клиенту путь в старую папку куда и должно происходить скачивание новых серий.
Ваш клиент при этом должен произвести хеширование (проверку) старой папки (если не производит сам - помогите ему сделать это), и будет докачивать только те серии которых у вас ещё нет. Старые серии при этом не удаляются, а продолжают раздаваться!
Eсли вы уже удалили старые серии, то предотвратить повторную закачку старых серий можно, отжав галочку в соответсвующих местах при запуске нового торрента.
         

_________________


Last edited by nsa1977 on 2011-08-04 20:38; edited 2 times in total
Other forum [Profile] [PM]
Display posts from previous:    
Reply to topic

The time now is: Today 11:25

All times are GMT + 3 Hours



You cannot post new topics in this forum
You cannot reply to topics in this forum
You cannot edit your posts in this forum
You cannot delete your posts in this forum
You cannot vote in polls in this forum
You cannot attach files in this forum
You cannot download files in this forum