Today is a free download without charge Download

Люди в чёрном 3 / Men in Black 3 (Барри Зонненфельд / Barry Sonnenfeld) [2012, США, фантастика, боевик, комедия, приключения, BDRip 720p] Dub Rus + Dub Ukr + AVO (А. Гаврилов) + Original Eng + Sub (Rus, Eng)

Reply to topic
 
Author
Message

Omen ®

Longevity: 8 years 5 months

Posts: 181087

Торрент-статистика

Post 25-May-2013 12:08

[Quote]

Люди в чёрном 3 / Men in Black 3«Вперёд в прошлое» Год выпуска: 2012
Страна: США
Жанр: фантастика, боевик, комедия, приключения
Продолжительность: 01:45:50.385
Перевод 1: Профессиональный (дублированный) Rus Blu-ray CEE
Перевод 2: Авторский (одноголосый закадровый) Андрей Гаврилов
Перевод 3: Профессиональный (дублированный) Ukr Blu-ray CEE
Оригинальная аудиодорожка: Английская
Субтитры: Русские, английские
Студия: Columbia Pictures, Hemisphere Media Capital, Amblin Entertainment
Режиссёр: Барри Зонненфельд / Barry Sonnenfeld
В ролях: Уилл Смит, Джош Бролин, Томми Ли Джонс, Джемейн Клемент, Майкл Стулбарг, Эмма Томпсон, Элис Ив, Майк Колтер, Билл Хэйдер, Майкл Чернус, Николь Шерзингер, Дэвид Раш, Кион Янг, Кайен Мартин, Кларк Торелл, Адам Муччи, Том МакКомас, Дуглас Кросби, Вуди Кинг мл., Джек О`Коннелл, Тобиаш Сигал, Джон Шэйвер, Герритт Вэндэрмир, Александра О`Хара, Виолет О`Хара, Вэленс Томас, Хлоя Сонненфельд, Лэнни Флаэрти, Джонатан О`Хара, Рик Бэйкер, Джо Д`Онофрио, Джозеф Р. Ганнасколи, Кэти Фрейм, Кевин Таунли, Стефен Брайан Джонс, Тайлер Джон и др.
Описание: Агент Джей узнает, что никакого защитного галактического щита, способного отразить иноземный удар, не существует. Агент Кей не построил его, потому что был убит в 1969 году. Агент Джей должен совершить путешествие во времени, чтобы спасти Землю и жизнь напарника.
  • Кинопоиск
  • IMDB
  • Blu-ray.com
  • Сэмпл
    Качество: BDRip 720p (HDChina)
    Контейнер: MKV
    Видео кодек: MPEG-4 AVC Video
    Аудио кодек: DTS Audio / Dolby Digital Audio
    Видео: MPEG-4 AVC Video / 7200 kbps / 1280x694p / 23,976 fps / 1.85:1 / 0.338 bit/pix / [email protected]
    Аудио 1: Русский / Dolby Digital Audio / 5.1 / 48 kHz / 640 kbps / 16-bit / Дубляж Blu-ray CEE
    Аудио 2: Русский / DTS Audio / 5.1 / 48 kHz / 1536 kbps / 16-bit / AVO Андрей Гаврилов
    Аудио 3: Украинский / Dolby Digital Audio / 5.1 / 48 kHz / 640 kbps / 16-bit / Дубляж Blu-ray CEE
    Аудио 4: English / DTS Audio / 5.1 / 48 kHz / 1536 kbps / 16-bit / Оригинал
    Навигация по главам: да

Скриншот с названием фильма

MediaInfo

C:\/*spam*/\Люди в чёрном 3 (Men in Black 3) 2012, США, фантастика, боевик, комедия, приключения BDRip 720p GORESEWAGE.mkv
General
Unique ID : 206336935158768260311729978707307044161 (0x9B3B0C5732B0483FAFBC3604AB9E9D41)
Complete name : C:\/*spam*/\Люди в чёрном 3 (Men in Black 3) 2012, США, фантастика, боевик, комедия, приключения BDRip 720p GORESEWAGE.mkv
Format : Matroska
Format version : Version 4 / Version 2
File size : 8.50 GiB
Duration : 1h 45mn
Overall bit rate : 11.5 Mbps
Movie name : GORESEWAGE
Encoded date : UTC 2013-05-24 16:50:30
Writing application : mkvmerge v6.1.0 ('Old Devil') built on Mar 31 2013 15:21:18
Writing library : libebml v1.3.0 + libmatroska v1.4.0
Video #1
ID : 1
Format : AVC
Format/Info : Advanced Video Codec
Format profile : [email protected]
Format settings, CABAC : Yes
Format settings, ReFrames : 9 frames
Codec ID : V_MPEG4/ISO/AVC
Duration : 1h 45mn
Bit rate : 7 200 Kbps
Width : 1 280 pixels
Height : 694 pixels
Display aspect ratio : 1.85:1
Frame rate mode : Constant
Frame rate : 23.976 fps
Color space : YUV
Chroma subsampling : 4:2:0
Bit depth : 8 bits
Scan type : Progressive
Bits/(Pixel*Frame) : 0.338
Stream size : 5.15 GiB (61%)
Title : GORESEWAGE
Writing library : x264 core 125 r2208 d9d2288
Encoding settings : cabac=1 / ref=9 / deblock=1:-3:-3 / analyse=0x3:0x113 / me=umh / subme=10 / psy=1 / psy_rd=1.10:0.05 / mixed_ref=1 / me_range=48 / chroma_me=1 / trellis=2 / 8x8dct=1 / cqm=0 / deadzone=21,11 / fast_pskip=0 / chroma_qp_offset=-3 / threads=18 / lookahead_threads=3 / sliced_threads=0 / nr=0 / decimate=0 / interlaced=0 / bluray_compat=0 / constrained_intra=0 / bframes=8 / b_pyramid=2 / b_adapt=2 / b_bias=0 / direct=3 / weightb=1 / open_gop=0 / weightp=2 / keyint=240 / keyint_min=24 / scenecut=40 / intra_refresh=0 / rc_lookahead=240 / rc=2pass / mbtree=1 / bitrate=7200 / ratetol=1.0 / qcomp=0.70 / qpmin=0 / qpmax=69 / qpstep=4 / cplxblur=20.0 / qblur=0.5 / ip_ratio=1.20 / aq=1:0.95
Language : English
Default : Yes
Forced : No
Audio #2
ID : 2
Format : AC-3
Format/Info : Audio Coding 3
Mode extension : CM (complete main)
Format settings, Endianness : Big
Codec ID : A_AC3
Duration : 1h 45mn
Bit rate mode : Constant
Bit rate : 640 Kbps
Channel(s) : 6 channels
Channel positions : Front: L C R, Side: L R, LFE
Sampling rate : 48.0 KHz
Bit depth : 16 bits
Compression mode : Lossy
Stream size : 484 MiB (6%)
Title : Профессиональный (дублированный) Blu-ray CEE
Language : Russian
Default : Yes
Forced : No
Audio #3
ID : 3
Format : DTS
Format/Info : Digital Theater Systems
Codec ID : A_DTS
Duration : 1h 45mn
Bit rate mode : Constant
Bit rate : 1 510 Kbps
Channel(s) : 6 channels
Channel positions : Front: L C R, Side: L R, LFE
Sampling rate : 48.0 KHz
Bit depth : 16 bits
Compression mode : Lossy
Stream size : 1.12 GiB (13%)
Title : Авторский (одноголосый закадровый) Андрей Гаврилов
Language : Russian
Default : No
Forced : No
Audio #4
ID : 4
Format : AC-3
Format/Info : Audio Coding 3
Mode extension : CM (complete main)
Format settings, Endianness : Big
Codec ID : A_AC3
Duration : 1h 45mn
Bit rate mode : Constant
Bit rate : 640 Kbps
Channel(s) : 6 channels
Channel positions : Front: L C R, Side: L R, LFE
Sampling rate : 48.0 KHz
Bit depth : 16 bits
Compression mode : Lossy
Stream size : 484 MiB (6%)
Title : Профессиональный (дублированный) Blu-ray CEE
Language : Ukrainian
Default : No
Forced : No
Audio #5
ID : 5
Format : DTS
Format/Info : Digital Theater Systems
Codec ID : A_DTS
Duration : 1h 45mn
Bit rate mode : Constant
Bit rate : 1 510 Kbps
Channel(s) : 6 channels
Channel positions : Front: L C R, Side: L R, LFE
Sampling rate : 48.0 KHz
Bit depth : 16 bits
Compression mode : Lossy
Stream size : 1.12 GiB (13%)
Title : Оригинал
Language : English
Default : No
Forced : No
Text #6
ID : 6
Format : UTF-8
Codec ID : S_TEXT/UTF8
Codec ID/Info : UTF-8 Plain Text
Title : Full
Language : Russian
Default : No
Forced : No
Text #7
ID : 7
Format : UTF-8
Codec ID : S_TEXT/UTF8
Codec ID/Info : UTF-8 Plain Text
Title : Full
Language : English
Default : No
Forced : No
Menu
00:00:00.000 : en:00:00:00.000
00:06:09.578 : en:00:06:09.578
00:11:27.478 : en:00:11:27.478
00:16:58.809 : en:00:16:58.809
00:22:36.230 : en:00:22:36.230
00:31:24.633 : en:00:31:24.633
00:37:36.421 : en:00:37:36.421
00:42:43.019 : en:00:42:43.019
00:48:55.850 : en:00:48:55.850
00:53:58.235 : en:00:53:58.235
00:59:27.773 : en:00:59:27.773
01:05:52.782 : en:01:05:52.782
01:11:56.312 : en:01:11:56.312
01:19:50.619 : en:01:19:50.619
01:27:57.063 : en:01:27:57.063
01:35:30.683 : en:01:35:30.683

Полноразмерный постер

Other forum [Profile] [PM]
Display posts from previous:    
Reply to topic

The time now is: Today 03:27

All times are GMT + 3 Hours



You cannot post new topics in this forum
You cannot reply to topics in this forum
You cannot edit your posts in this forum
You cannot delete your posts in this forum
You cannot vote in polls in this forum
You cannot attach files in this forum
You cannot download files in this forum