Today is a free download without charge Download

Елена (Андрей Звягинцев) [Драма, Мелодрама, 2011] BDRip

Reply to topic
 
Author
Message

Omen ®

Longevity: 8 years

Posts: 181087

Торрент-статистика

Post 25-May-2013 11:45

[Quote]

Елена- Русское название: Елена
Год выпуска: 2011
Жанр: Драма, Мелодрама
Описание фильма:
История пожилой семейной пары Елены и Владимира. Богатый и скупой Владимир относится к Елене скорее как к служанке, чем к жене. У обоих есть дети от первого брака: у Елены — сын, у Владимира — дочь…
Режиссер: Андрей Звягинцев
Актеры: Андрей Смирнов, Надежда Маркина, Елена Лядова, Алексей Розин, Игорь Огурцов, Евгения Конушкина, Юрий Борисов, Рустам Ахмадеев, Анна Гуляренко, Василий Мичков
Продолжительность: 01:49:31
Премьера (мир): 21 мая 2011, ...
Премьера (РФ): 29 сентября 2011, «Нон-Стоп Продакшн»
Релиз на DVD: 23 ноября 2011, «Кармен Видео», ...
Релиз на Blu-Ray: 30 ноября 2011, «Кармен Видео», ...

Видеокодек: Xvid
Битрейт видео: ~2160kbps
Размер кадра: 720x304
Качество видео: BDRip
Аудиокодек: AC3, 6ch
Битрейт аудио: 448kbps

MI

C:\Users\....\Elena.2011.RUS.BDRip.XviD.AC3.avi
General
  • Complete name : C:\Users\....\Elena.2011.RUS.BDRip.XviD.AC3.avi
  • Format : AVI
  • Format/Info : Audio Video Interleave
  • Format profile : OpenDML
  • File size : 2.00 GiB
  • Duration : 1h 49mn
  • Overall bit rate : 2 619 Kbps
  • Movie name : Елена (2011) BDRip
  • Director : Flynn82
  • Genre : Drama
  • Writing application : VirtualDubMod 1.5.10.2 (build 2542/release)
  • Copyright : http://hqclub.net/
  • Comment : 06.01.2012
    Video #0
  • ID : 0
  • Format : MPEG-4 Visual
  • Format profile : Advanced [email protected]
  • Format settings, BVOP : 1
  • Format settings, QPel : No
  • Format settings, GMC : No warppoints
  • Format settings, Matrix : Custom
  • Codec ID : XVID
  • Codec ID/Hint : XviD
  • Duration : 1h 49mn
  • Bit rate : 2 161 Kbps
  • Width : 720 pixels
  • Height : 304 pixels
  • Display aspect ratio : 2.35:1
  • Frame rate : 24.000 fps
  • Color space : YUV
  • Chroma subsampling : 4:2:0
  • Bit depth : 8 bits
  • Scan type : Progressive
  • Compression mode : Lossy
  • Bits/(Pixel*Frame) : 0.411
  • Stream size : 1.65 GiB (82%)
  • Writing library : XviD 72
    Audio #1
  • ID : 1
  • Format : AC-3
  • Format/Info : Audio Coding 3
  • Mode extension : CM (complete main)
  • Format settings, Endianness : Big
  • Codec ID : 2000
  • Duration : 1h 49mn
  • Bit rate mode : Constant
  • Bit rate : 448 Kbps
  • Channel(s) : 6 channels
  • Channel positions : Front: L C R, Side: L R, LFE
  • Sampling rate : 48.0 KHz
  • Bit depth : 16 bits
  • Compression mode : Lossy
  • Stream size : 350 MiB (17%)
  • Alignment : Split accross interleaves
  • Interleave, duration : 42 ms (1.00 video frame)
  • Interleave, preload duration : 500 ms
Скриншоты:
       
Other forum [Profile] [PM]
Display posts from previous:    
Reply to topic

The time now is: Today 17:32

All times are GMT + 3 Hours



You cannot post new topics in this forum
You cannot reply to topics in this forum
You cannot edit your posts in this forum
You cannot delete your posts in this forum
You cannot vote in polls in this forum
You cannot attach files in this forum
You cannot download files in this forum